↑↓torrent.by
Поиск
Логин:  Регистрация
Пароль:

Чего вы желаете / What You Wish For (2023) WEB-DLRip-AVC | L

download Скачать торрент-файл   magnet Магнитная ссылка Размер: 2.18 GB Раздают: 35 Качают: 1 Добавлен: il68k 2024-06-04 16:25
Пиры будут получены из сети DHT
Последний сидер был замечен сегодня в 22:49
Информация о фильме Название: Чего вы желаете Оригинальное название: What You Wish For Год выхода: 2023 Жанр: триллер Режиссер: Николас Томней В ролях: Ник Стал, Тэмсин Топольски, Рэнди Васкес, Пенелопа Митчелл, Хуан Карлос Месьер, Брайан Гро, Эриель Сьерра, Дэвид Томинага, Норма Нивия, Мэгуми Хасэбэ О фильме: События происходят в Латинской Америке и рассказывают историю Райана, который ищет убежища и остро нуждается в деньгах. Райан принимает личность своего успешного школьного шеф-повара Джека, чтобы погасить огромный игровой долг. Страна: США Студия: Freestyle Picture Company, Jaguar Bite, Evergreen Avenue Продолжительность: 01:41:38 Перевод: Любительский (многоголосый закадровый) | Синема УС Файл Кодек: Н.264 Качество: WEB-DLRip-AVC Видео: MPEG-4 AVC, 2432 Kbps, 1024x466 (2.2:1), 23.976 fps, 0.213 bit/pixel, High@L4.1 Звук 1: 48 kHz, AC3 Dolby Digital, 2/0 (L, R) ch, ~192 kbps | Синема УС Звук 2: 48 kHz, AC3 Dolby Digital, 3/2 (L, C, R, l, r) + LFE ch, ~448 kbps | Английский Субтитры: английские (full, SDH)
[+] Скриншоты
[+] MediaInfo raw : 1024x466p 1:1 @ 24000/1001 fps (cfr) x264 : using SAR=1/1 x264 : using cpu capabilities: MMX2 SSE2Fast SSSE3 SSE4.2 AVX FMA3 BMI2 AVX2 x264 : profile High, level 4.1, 4:2:0, 8-bit x264 : frame I:1357 Avg QP:16.73 size: 73187 x264 : frame P:31064 Avg QP:18.68 size: 25719 x264 : frame B:113795 Avg QP:19.61 size: 8399 x264 : consecutive B-frames: 1.8% 1.6% 4.2% 29.9% 18.5% 34.2% 5.1% 2.8% 0.8% 0.3% 0.2% 0.6% x264 : mb I I16..4: 15.6% 61.8% 22.6% x264 : mb P I16..4: 1.0% 7.6% 1.6% P16..4: 34.4% 28.7% 19.2% 0.0% 0.0% skip: 7.5% x264 : mb B I16..4: 0.0% 0.8% 0.1% B16..8: 34.6% 12.8% 4.1% direct: 4.9% skip:42.6% L0:44.1% L1:43.6% BI:12.3% x264 : 8x8 transform intra:73.4% inter:47.0% x264 : direct mvs spatial:100.0% temporal:0.0% x264 : coded y, uvDC, uvAC intra: 91.7% 84.8% 66.6% inter: 27.4% 18.1% 8.0% x264 : i16 v, h, dc, p: 15% 4% 41% 41% x264 : i8 v, h, dc, ddl, ddr, vr, hd, vl, hu: 17% 10% 16% 8% 10% 10% 10% 10% 11% x264 : i4 v, h, dc, ddl, ddr, vr, hd, vl, hu: 36% 7% 5% 7% 10% 10% 9% 8% 8% x264 : i8c dc, h, v, p: 43% 23% 22% 12% x264 : Weighted P-Frames: Y:1.4% UV:0.5% x264 : ref P L0: 47.7% 11.2% 16.5% 4.7% 4.9% 2.9% 3.3% 1.5% 1.7% 1.2% 1.4% 1.0% 1.2% 0.9% 0.0% 0.0% x264 : ref B L0: 64.7% 13.0% 6.6% 3.6% 2.6% 2.4% 1.9% 1.3% 1.1% 1.0% 0.9% 0.6% 0.2% x264 : ref B L1: 92.9% 7.1% x264 : kb/s:2432.09 x264 : encoded 146216 frames, 14.63 fps, 2432.10 kb/s ==================================================================== General Unique ID: 292577326764257277847045088982098537609 (0xDC1C57ED6A11AC6E2226BC1BF1406C89) Complete name: C:\CHego.vy.zhelaete.2023.AMZN.WEB-DLRip.AVC.mkv Format: Matroska Format version: Version 4 File size: 2.18 GiB Duration: 1 h 41 min Overall bit rate: 3 074 kb/s Frame rate: 23.976 FPS Movie name: What You Wish For (2023) WEB-DLRip-AVC _ vitolinform Encoded date: 2024-06-04 00:46:32 UTC Writing application: mkvmerge v85.0 ('Shame For You') 64-bit Writing library: libebml v1.4.5 + libmatroska v1.7.1 Attachments: poster.jpg / log.log Video ID: 1 Format: AVC Format/Info: Advanced Video Codec Format profile: High@L4.1 Format settings: CABAC / 14 Ref Frames Format settings, CABAC: Yes Format settings, Reference frames: 14 frames Codec ID: V_MPEG4/ISO/AVC Duration: 1 h 41 min Bit rate: 2 432 kb/s Width: 1 024 pixels Height: 466 pixels Display aspect ratio: 2.2:1 Frame rate mode: Constant Frame rate: 23.976 (24000/1001) FPS Color space: YUV Chroma subsampling: 4:2:0 Bit depth: 8 bits Scan type: Progressive Bits/(Pixel*Frame): 0.213 Stream size: 1.73 GiB (79%) Title: Чего вы желаете / What You Wish For (2023) Writing library: x264 core 164 r3172 c1c9931 Encoding settings: cabac=1 / ref=14 / deblock=1:-3:-3 / analyse=0x3:0x113 / me=umh / subme=10 / psy=1 / psy_rd=1.00:0.15 / mixed_ref=1 / me_range=32 / chroma_me=1 / trellis=2 / 8x8dct=1 / cqm=0 / deadzone=21, 11 / fast_pskip=0 / chroma_qp_offset=-3 / threads=15 / lookahead_threads=3 / sliced_threads=0 / nr=0 / decimate=0 / interlaced=0 / bluray_compat=0 / constrained_intra=0 / bframes=11 / b_pyramid=2 / b_adapt=2 / b_bias=0 / direct=3 / weightb=1 / open_gop=0 / weightp=2 / keyint=250 / keyint_min=24 / scenecut=40 / intra_refresh=0 / rc_lookahead=60 / rc=crf / mbtree=0 / crf=18.5 / qcomp=0.60 / qpmin=0 / qpmax=69 / qpstep=4 / vbv_maxrate=50000 / vbv_bufsize=62500 / crf_max=0.0 / nal_hrd=none / filler=0 / ip_ratio=1.40 / pb_ratio=1.30 / aq=1:1.00 Language: English Default: Yes Forced: No Color range: Limited Color primaries: BT.709 Transfer characteristics: BT.709 Matrix coefficients: BT.709 Audio #1 ID: 2 Format: AC-3 Format/Info: Audio Coding 3 Commercial name: Dolby Digital Codec ID: A_AC3 Duration: 1 h 41 min Bit rate mode: Constant Bit rate: 192 kb/s Channel(s): 2 channels Channel layout: L R Sampling rate: 48.0 kHz Frame rate: 31.250 FPS (1536 SPF) Compression mode: Lossy Stream size: 140 MiB (6%) Title: MVO | Синема УС Language: Russian Service kind: Complete Main Default: Yes Forced: No Audio #2 ID: 3 Format: AC-3 Format/Info: Audio Coding 3 Commercial name: Dolby Digital Codec ID: A_AC3 Duration: 1 h 41 min Bit rate mode: Constant Bit rate: 448 kb/s Channel(s): 6 channels Channel layout: L R C LFE Ls Rs Sampling rate: 48.0 kHz Frame rate: 31.250 FPS (1536 SPF) Compression mode: Lossy Stream size: 326 MiB (15%) Title: English Language: English Service kind: Complete Main Default: No Forced: No AC3_metadata cmixlev: -4.5 dB surmixlev: -6 dB Text #1 ID: 4 Format: UTF-8 Codec ID: S_TEXT/UTF8 Codec ID/Info: UTF-8 Plain Text Duration: 1 h 36 min Bit rate: 44 b/s Frame rate: 0.204 FPS Count of elements: 1187 Stream size: 31.5 KiB (0%) Title: Full Language: English Default: No Forced: No Text #2 ID: 5 Format: UTF-8 Codec ID: S_TEXT/UTF8 Codec ID/Info: UTF-8 Plain Text Duration: 1 h 37 min Bit rate: 49 b/s Frame rate: 0.232 FPS Count of elements: 1354 Stream size: 35.4 KiB (0%) Title: SDH Language: English Default: No Forced: No Menu 00:00:00.000: en:Scene 01 01:38:00.750: en:End Credits
Rip by vitolinform

Всего файлов в раздаче: 1 
CHego.vy.zhelaete.2023.AMZN.WEB-DLRip.AVC.mkv2.18 GB

Похожие раздачи по запросу - Чего
2023-06-15 magnet Анна Смолина - Цикл «А чего дома сидеть?» [3 книги] (2020-2022) EPUB 37.25 MB ↑ 0 ↓ 0

Комментарии


Зарегистрируйтесь чтобы добавить комментарий
Торрент клиент
byTorrent - программа для загрузки торрент-файлов.

Скачать byTorrent.exe (1,5 МБ)

Скачать byTorrent.zip (0,6 МБ)

Поддержи torrent.by
российских рублей
(300 российских рублей это 4$)

Обратная связь rss

End game ©