↑↓torrent.by
Поиск
Логин:  Регистрация
Пароль:

Древние державы / Ancient Powers [01x01-02 из 06] (2023) WEB-DL 1080p | Pazl Voice

download Скачать торрент-файл   magnet Магнитная ссылка Размер: 5.19 GB Добавлен: 2024-06-04 17:00
Пиры будут получены из сети DHT
Последний сидер был замечен 2024-06-04 17:00
Название: Древние державы Оригинальное название: Ancient Powers Год выхода: 2023 Жанр: Документальный, история Режиссер: Йен А. Хант В ролях: Теренс Мэйнард, Александр Мариотти, Салима Икрам Описание сериала: В каждом эпизоде, представленном ведущими мировыми специалистами по истории, используются самые последние научные и археологические открытия, чтобы раскрыть инструменты, технологии, стратегии и системы, которые решили судьбу Древнего мира. Страна: Великобритания Студия: BBC Studios Продолжительность: ~00:50:00 Перевод: Профессиональный (двухголосый) Pazl Voice Субтитры: Русские (Forced, Full) Файл Формат: MKV Качество: WEB-DL (1080p) Видео: 1920x1072 (16:9), 25 fps, AVC (х264), High@L4, ~7845 Kbps avg, 0.152 bit/pixel Аудио RUS: 48 kHz, AC3, 2/0 (L, R) ch, ~224 kbps avg Аудио ENG: 48 kHz, E-AC3, 2/0 (L, R) ch, ~224 kbps avg
[+] MediaInfoОбщее Уникальный идентификатор : 35450828372921091139804103024992549616 (0x1AAB94C8FA411F2022409C273EAB7AF0) Полное имя : Ancient Powers.2023.S01E01.WEB-DL.1080p.Pazl.Voice.mkv Формат : Matroska Версия формата : Version 4 Размер файла : 2,79 Гбайт Продолжительность : 48 мин. 14 с. Общий битрейт : 8 296 Кбит/сек Частота кадров : 25,000 кадров/сек Дата кодирования : 2024-05-24 17:12:23 UTC Программа кодирования : mkvmerge v68.0.0 ('The Curtain') 64-bit Библиотека кодирования : libebml v1.4.2 + libmatroska v1.6.4 Видео Идентификатор : 1 Формат : AVC Формат/Информация : Advanced Video Codec Профиль формата : Progressive High@L4 Настройки формата : CABAC / 2 Ref Frames Параметр CABAC формата : Да Параметр RefFrames формата : 2 кадра Идентификатор кодека : V_MPEG4/ISO/AVC Продолжительность : 48 мин. 14 с. Битрейт : 7 845 Кбит/сек Ширина : 1 920 пикселей Высота : 1 072 пикселя Соотношение сторон дисплея : 16:9 Режим частоты кадров : Постоянный Частота кадров : 25,000 кадров/сек Цветовое пространство : YUV Цветовая субдискретизация : 4:2:0 Битовая глубина : 8 бит Тип развёртки : Прогрессивная Бит/(Пиксели*Кадры) : 0.152 Размер потока : 2,64 Гбайт (95%) По умолчанию : Да Принудительно : Нет Цветовой диапазон : Limited Основные цвета : BT.709 Характеристики трансфера : BT.709 Коэффициенты матрицы : BT.709 Аудио #1 Идентификатор : 2 Формат : AC-3 Формат/Информация : Audio Coding 3 Коммерческое название : Dolby Digital Идентификатор кодека : A_AC3 Продолжительность : 48 мин. 14 с. Вид битрейта : Постоянный Битрейт : 224 Кбит/сек Канал(-ы) : 2 канала Расположение каналов : L R Частота дискретизации : 48,0 КГц Частота кадров : 31,250 кадров/сек (1536 SPF) Метод сжатия : С потерями Размер потока : 77,3 Мбайт (3%) Язык : Русский По умолчанию : Да Принудительно : Нет Нормализация звука речи : -31 dB dialnorm_Average : -31 dB dialnorm_Minimum : -31 dB dialnorm_Maximum : -31 dB Аудио #2 Идентификатор : 3 Формат : E-AC-3 Формат/Информация : Enhanced AC-3 Коммерческое название : Dolby Digital Plus Идентификатор кодека : A_EAC3 Продолжительность : 48 мин. 14 с. Вид битрейта : Постоянный Битрейт : 224 Кбит/сек Канал(-ы) : 2 канала Расположение каналов : L R Частота дискретизации : 48,0 КГц Частота кадров : 31,250 кадров/сек (1536 SPF) Метод сжатия : С потерями Размер потока : 77,3 Мбайт (3%) Язык : Английский По умолчанию : Нет Принудительно : Нет Нормализация звука речи : -31 dB dialnorm_Average : -31 dB dialnorm_Minimum : -31 dB dialnorm_Maximum : -31 dB Текст #1 Идентификатор : 4 Формат : UTF-8 Идентификатор кодека : S_TEXT/UTF8 Идентификатор кодека/Информация : UTF-8 Plain Text Продолжительность : 39 мин. 54 с. Битрейт : 3 бит/сек Частота кадров : 0,010 кадр/сек Число элементов : 25 Размер потока : 1 001 байт (0%) Заголовок : Forced Язык : Русский По умолчанию : Нет Принудительно : Нет Текст #2 Идентификатор : 5 Формат : UTF-8 Идентификатор кодека : S_TEXT/UTF8 Идентификатор кодека/Информация : UTF-8 Plain Text Продолжительность : 47 мин. 9 с. Битрейт : 110 бит/сек Частота кадров : 0,181 кадр/сек Число элементов : 513 Размер потока : 38,1 КиБ (0%) Язык : Русский По умолчанию : Нет Принудительно : Нет
[+] Скриншоты

Всего файлов в раздаче: 2 
Ancient Powers.2023.S01E01.WEB-DL.1080p.Pazl.Voice.mkv2.79 GB
Ancient Powers.2023.S01E02.WEB-DL.1080p.Pazl.Voice.mkv2.39 GB

Похожие раздачи по запросу - Древние
2024-06-13 magnet Древние державы / Ancient Powers [S01] (2023) WEB-DL 1080p | Pazl Voice 14.41 GB ↑ 0 ↓ 0
2024-06-05 magnet Древние пришельцы / Ancient Aliens [S20] (2024) WEB-DL 1080p | Влад Дорф 13.24 GB ↑ 0 ↓ 0
2024-06-05 magnet Древние державы / Ancient Powers [01x01-03 из 06] (2023) WEB-DL 1080p | Pazl Voice 1К7.93 GB ↑ 1 ↓ 0
2024-05-25 magnet Древние державы / Ancient Powers [01x01 из 06] (2023) WEB-DL 1080p | Pazl Voice 2.79 GB ↑ 1 ↓ 0

Кто качает (только для создателя раздачи и модераторов): Локальные пиры отсутствуют

Комментарии


Зарегистрируйтесь чтобы добавить комментарий
Торрент клиент
byTorrent - программа для загрузки торрент-файлов.

Скачать byTorrent.exe (1,5 МБ)

Скачать byTorrent.zip (0,6 МБ)

Поддержи torrent.by
российских рублей
(300 российских рублей это 4$)

Обратная связь rss

End game ©