↑↓torrent.by
Поиск
Логин:  Регистрация
Пароль:

Подвиг / Jin gang chuan / The Sacrifice (2020) BDRip от New-Team | D

download Скачать торрент-файл   magnet Магнитная ссылка Размер: 1.46 GB Добавлен: 2024-06-04 17:00
Пиры будут получены из сети DHT
Последний сидер был замечен 2024-06-06 12:13
Подвиг / Jin gang chuan / The Sacrifice Год выпуска: 2020 Выпущено: Китай / China Film Group Corporation (CFGC) Жанр: военный, боевик, драма, история Режиссер: Гуань Ху / Guan Hu, Франт Гво / Frant Gwo, Лу Ян / Lu Yang В ролях: Чжан И, Джеки У, Ли Цзюсяо, Вижен Вэй, Дэн Чао, Охо Оу, Цю Тянь, Чжоу Сыюй, Лю Сяньда, Владимир Ершов О фильме: 12 июля 1953 года, Корейская война. Для подготовки к битве за Кымсон отважные китайские добровольцы героически защищают от американской авиации стратегически важный мост через реку Пукханган. Продолжительность: 02:02:12 Перевод: Профессиональный (полное дублирование) | СиПиАй Филмз / CPI Films Субтитры: Русские (forced), английские . Раздача от: Автор релиза: JNS82. Формат: AVI Качество: BDRip | The Sacrifice.2020.Remux.W Видео: 720x304 (2.35:1), 24,000 fps, XviD MPEG-4 ~ 1322 kbps avg, 0.252 bit/pixel, build 74 Аудио: 48 kHz, AC3 Dolby Digital, 3/2 (L,C,R,l,r) + LFE ch, ~ 384 kbps | RUS |
[+] MediaInfoОбщее Полное имя : D:TorrentsThe Sacrifice.2020.BDRip_от New-Team_by_JNS82The Sacrifice.2020.BDRip_от New-Team_by_JNS82.avi Формат : AVI Формат/Информация : Audio Video Interleave Размер файла : 1,46 Гбайт Продолжительность : 2 ч. 2 м. Общий поток : 1 716 Кбит/сек Программа кодирования : VirtualDubMod 1.5.10.2 (build 2540/release) Библиотека кодирования : VirtualDubMod build 2540/release Видео Идентификатор : 0 Формат : MPEG-4 Visual Профиль формата : Advanced Simple@L5 Настройки формата : BVOP1 / Custom Matrix Параметр BVOP формата : 1 Параметр QPel формата : Нет Параметр GMC формата : Без точки перехода Параметр матрицы формата : Выборочная Идентификатор кодека : XVID Идентификатор кодека/Подсказка : XviD Продолжительность : 2 ч. 2 м. Битрейт : 1 322 Кбит/сек Ширина : 720 пикселей Высота : 304 пикселя Соотношение сторон : 2,35:1 Частота кадров : 24,000 кадра/сек Цветовое пространство : YUV Субдискретизация насыщенности : 4:2:0 Битовая глубина : 8 бит Тип развёртки : Прогрессивная Метод сжатия : С потерями Бит/(Пиксели*Кадры) : 0.252 Размер потока : 1,13 Гбайт (77%) Библиотека кодирования : XviD 74 Аудио Идентификатор : 1 Формат : AC-3 Формат/Информация : Audio Coding 3 Коммерческое название : Dolby Digital Идентификатор кодека : 2000 Продолжительность : 2 ч. 2 м. Вид битрейта : Постоянный Битрейт : 384 Кбит/сек Каналы : 6 каналов Channel layout : L R C LFE Ls Rs Частота : 48,0 КГц Частота кадров : 31,250 кадров/сек (1536 SPF) Метод сжатия : С потерями Размер потока : 336 Мбайт (22%) Выравнивание : Разделение по промежуткам Продолжительность промежутка : 42 мс. (1,00 видеокадр) Время предзагрузки промежутка : 500 мс. Service kind : Complete Main

Всего файлов в раздаче: 3 
The Sacrifice.2020.BDRip_от New-Team_by_JNS82.avi1.46 GB
The Sacrifice.2020.BDRip_от New-Team_by_JNS82_[eng].srt78.97 kB
The Sacrifice.2020.BDRip_от New-Team_by_JNS82_[rus].srt2.56 kB

Похожие раздачи по запросу - Подвиг
2024-06-05 magnet Подвиг / Jin gang chuan / The Sacrifice (2020) BDRip-AVC | D 2.86 GB ↑ 2 ↓ 0
2024-06-04 magnet Подвиг / Jin gang chuan / The Sacrifice (2020) BDRip 720p от DoMiNo & селезень | D 5.78 GB ↑ 0 ↓ 0
2024-06-04 magnet Подвиг / Jin gang chuan / The Sacrifice (2020) BDRemux 1080p | D 21.07 GB ↑ 0 ↓ 0
2024-06-02 magnet Подвиг / Jin gang chuan / The Sacrifice (2020) WEB-DL 1080p | D 4.88 GB ↑ 0 ↓ 0
2023-12-11 magnet Подвиг разведчика (1947) WEB-DLRip-AVC от New-Team | цвет 1.09 GB ↑ 0 ↓ 0

Кто качает (только для создателя раздачи и модераторов): Локальные пиры отсутствуют

Комментарии


Зарегистрируйтесь чтобы добавить комментарий
Торрент клиент
byTorrent - программа для загрузки торрент-файлов.

Скачать byTorrent.exe (1,5 МБ)

Скачать byTorrent.zip (0,6 МБ)

Поддержи torrent.by
российских рублей
(300 российских рублей это 4$)

Обратная связь rss

End game ©