↑↓torrent.by
Поиск
Логин:  Регистрация
Пароль:

57 секунд / 57 Seconds (2023) BDRip-AVC от DoMiNo & селезень | D, P2

download Скачать торрент-файл   magnet Магнитная ссылка Размер: 1.73 GB Добавлен: 2024-06-04 17:00
Пиры будут получены из сети DHT
Последний сидер был замечен вчера в 21:01
Информация о фильме Название: 57 секунд Оригинальное название: 57 Seconds Год выхода: 2023 Жанр: Фантастика, триллер Режиссер: Расти Кандифф В ролях: Морган Фриман, Джош Хатчерсон, Грег Джерманн, Лови Симон, Бевин Брю, Грифф Ферст, Сэмми Ротиби, Маркус Браун, Аарон Хэнсон, Люсиус Бастон мл. О фильме: Блогер Франклин Фаусти спасает от нападения технического гуру Антона Баррелла, который соглашается на интервью в знак благодарности. Когда Франклин обнаруживает кольцо, принадлежащее Барреллу, то узнает, что тому удалось создать гаджет, позволяющий перемещаться во времени на 57 секунд в прошлое. Блогер договаривается с Антоном и берет кольцо, чтобы отомстить тем, кто убил его сестру. Страна: США Студия: Ashland Hill Media Finance, Curmudgeon Films, Revelations Entertainment Продолжительность: 01:39:27 Перевод 1: Дублированный | Pride Production Перевод 2: Профессиональный (двухголосый, закадровый) | Кубик в Кубе 18+ Субтитры: Русские (Forced, Full), английские Файл Формат: Matroska Качество: BDRip-AVC Видео: 1024x428 at 23.976 fps, x264@L4.1, ~1597 kbps Аудио 1: AC3, 6 ch, ~448 kbps - | Русский | | Pride Production Аудио 2: AC3, 6 ch, ~448 kbps - | Русский | | Кубик в Кубе Формат субтитров: softsub (SRT) ***Рип от: -=DoMiNo=-
[+] M/Ix264 : frame I:1393 Avg QP:14.65 size: 48500 x264 : frame P:29021 Avg QP:15.76 size: 17838 x264 : frame B:112652 Avg QP:18.38 size: 5378 General Unique ID : 170571469071515842752019405822476084429 (0x8052DEB7F2364A1DAD428F0C8E42E4CD) Complete name : O:57.Seconds.2023.D.P2.BDRip.x264.seleZen.mkv Format : Matroska Format version : Version 4 File size : 1.73 GiB Duration : 1 h 39 min Overall bit rate : 2 494 kb/s Frame rate : 23.976 FPS Movie name : 57.Seconds.2023.DUB.DVO.BDRip.x264.seleZen Encoded date : 2023-10-10 08:36:33 UTC Writing application : mkvmerge v79.0 ('Funeral Pyres') 64-bit Writing library : libebml v1.4.4 + libmatroska v1.7.1 Cover : Yes Attachments : cover.jpg / small_cover.jpg Video ID : 1 Format : AVC Format/Info : Advanced Video Codec Format profile : High@L4.1 Format settings : CABAC / 12 Ref Frames Format settings, CABAC : Yes Format settings, Reference : 12 frames Codec ID : V_MPEG4/ISO/AVC Duration : 1 h 39 min Bit rate : 1 597 kb/s Width : 1 024 pixels Height : 428 pixels Display aspect ratio : 2.40:1 Frame rate mode : Constant Frame rate : 23.976 (24000/1001) FPS Color space : YUV Chroma subsampling : 4:2:0 Bit depth : 8 bits Scan type : Progressive Bits/(Pixel*Frame) : 0.152 Stream size : 1.11 GiB (64%) Title : -=DoMiNo=- Writing library : x264 core 164 r3107+58M ae98796 t_mod_New | by -=DoMiNo=- | X86_64] Encoding settings : cabac=1 / ref=12 / deblock=1:-2:-2 / analyse=0x3:0x133 / me=umh / subme=10 / psy=1 / fade_compensate=0.00 / psy_rd=1.02:0.03 / mixed_ref=1 / me_range=32 / chroma_me=1 / trellis=2 / 8x8dct=1 / cqm=0 / deadzone=21,11 / fast_pskip=0 / chroma_qp_offset=-3 / threads=17 / lookahead_threads=3 / sliced_threads=0 / nr=0 / decimate=1 / interlaced=0 / bluray_compat=0 / constrained_intra=0 / fgo=0 / bframes=12 / b_pyramid=2 / b_adapt=2 / b_bias=0 / direct=3 / weightb=1 / open_gop=0 / weightp=2 / keyint=240 / keyint_min=24 / scenecut=40 / intra_refresh=0 / rc_lookahead=60 / rc=crf / mbtree=0 / crf=17.8000 / qcomp=0.70 / qpmin=0:0:0 / qpmax=69:69:69 / qpstep=4 / vbv_maxrate=50000 / vbv_bufsize=62500 / crf_max=0.0 / nal_hrd=none / filler=0 / ip_ratio=1.30 / pb_ratio=1.25 / aq=1:0.90 / aq-sensitivity=10.00 / aq-factor=1.00:1.00:1.00 / aq2=0 / aq3=0 Language : English Default : Yes Forced : No Color range : Limited Color primaries : BT.709 Transfer characteristics : BT.709 Matrix coefficients : BT.709 Audio #1 ID : 2 Format : AC-3 Format/Info : Audio Coding 3 Commercial name : Dolby Digital Codec ID : A_AC3 Duration : 1 h 39 min Bit rate mode : Constant Bit rate : 448 kb/s Channel(s) : 6 channels Channel layout : L R C LFE Ls Rs Sampling rate : 48.0 kHz Frame rate : 31.250 FPS (1536 SPF) Compression mode : Lossy Stream size : 319 MiB (18%) Title : Дублированный | Pride Production Language : Russian Service kind : Complete Main Default : Yes Forced : No Audio #2 ID : 3 Format : AC-3 Format/Info : Audio Coding 3 Commercial name : Dolby Digital Codec ID : A_AC3 Duration : 1 h 39 min Bit rate mode : Constant Bit rate : 448 kb/s Channel(s) : 6 channels Channel layout : L R C LFE Ls Rs Sampling rate : 48.0 kHz Frame rate : 31.250 FPS (1536 SPF) Compression mode : Lossy Stream size : 319 MiB (18%) Title : Кубик в Кубе Language : Russian Service kind : Complete Main Default : No Forced : No Text #1 ID : 4 Format : UTF-8 Codec ID : S_TEXT/UTF8 Codec ID/Info : UTF-8 Plain Text Duration : 1 h 30 min Bit rate : 0 b/s Frame rate : 0.002 FPS Count of elements : 11 Stream size : 329 Bytes (0%) Title : Forced Language : Russian Default : No Forced : No Text #2 ID : 5 Format : UTF-8 Codec ID : S_TEXT/UTF8 Codec ID/Info : UTF-8 Plain Text Duration : 1 h 31 min Bit rate : 103 b/s Frame rate : 0.256 FPS Count of elements : 1399 Stream size : 69.1 KiB (0%) Title : Full Language : Russian Default : No Forced : No Text #3 ID : 6 Format : UTF-8 Codec ID : S_TEXT/UTF8 Codec ID/Info : UTF-8 Plain Text Duration : 1 h 38 min Bit rate : 84 b/s Frame rate : 0.332 FPS Count of elements : 1967 Stream size : 60.9 KiB (0%) Title : SDH Language : English Default : No Forced : No Menu 00:00:00.000 : en:Глава 01 00:06:25.552 : en:Глава 02 00:13:16.754 : en:Глава 03 00:20:05.996 : en:Глава 04 00:25:34.658 : en:Глава 05 00:32:09.469 : en:Глава 06 00:41:54.512 : en:Глава 07 00:47:59.919 : en:Глава 08 00:52:55.547 : en:Глава 09 00:59:29.399 : en:Глава 10 01:04:12.474 : en:Глава 11 01:11:44.967 : en:Глава 12 01:17:32.940 : en:Глава 13 01:21:59.414 : en:Глава 14 01:26:26.181 : en:Глава 15 01:30:29.924 : en:Глава 16
Релиз: Присоединяйся к: Кликай на баннеры.

Всего файлов в раздаче: 1 
57.Seconds.2023.D.P2.BDRip.x264.seleZen.mkv1.73 GB

Похожие раздачи по запросу - секунд
2024-06-10 magnet 57 секунд / 57 Seconds (2023) WEB-DL-HEVC 2160p | 4K | SDR | P, L | UKR 11.49 GB ↑ 0 ↓ 0
2024-06-04 magnet 57 секунд / 57 Seconds (2023) BDRip-AVC от DoMiNo & селезень | D, P2 744.23 MB ↑ 0 ↓ 0
2023-10-12 magnet 57 секунд / 57 Seconds (2023) BDRip-AVC от Generalfilm | D 1.22 GB ↑ 0 ↓ 0
2023-09-30 magnet 57 секунд / 57 Seconds (2023) WEB-DL 2160p от ELEKTRI4KA | 4K | HEVC | SDR | D 8.53 GB ↑ 0 ↓ 1
2023-09-30 magnet 57 секунд / 57 Seconds (2023) WEB-DLRip 720p от ExKinoRay | D 2.07 GB ↑ 0 ↓ 0

Кто качает (только для создателя раздачи и модераторов): Локальные пиры отсутствуют

Комментарии


Зарегистрируйтесь чтобы добавить комментарий
Торрент клиент
byTorrent - программа для загрузки торрент-файлов.

Скачать byTorrent.exe (1,5 МБ)

Скачать byTorrent.zip (0,6 МБ)

Поддержи torrent.by
российских рублей
(300 российских рублей это 4$)

Обратная связь rss

End game ©