↑↓torrent.by
Поиск
Логин:  Регистрация
Пароль:

Willie Nelson - The Border [24-bit Hi-Res] (2024) FLAC

download Скачать торрент-файл   magnet Магнитная ссылка Размер: 719.83 MB Добавлен: 2024-06-05 05:00
Пиры будут получены из сети DHT
Последний сидер был замечен 2024-06-05 16:26
Название: The Border Исполнитель: Willie Nelson Год: 2024 Жанр: Country Издатель (лейбл): Legacy Recordings Продолжительность: 00:35:16 Формат/Кодек: FLAC Тип рипа: Tracks Битрейт аудио: Lossless Разрядность: 24 Bit/96 kHz
[+] Трек-лист 01. The Border (00:05:10) 02. Once Upon A Yesterday (00:03:41) 03. What If I'm Out Of My Mind (00:02:58) 04. I Wrote This Song For You (00:03:49) 05. Kiss Me When You're Through (00:02:45) 06. Many A Long And Lonesome Highway (00:04:05) 07. Hank's Guitar (00:03:06) 08. Made In Texas (00:02:25) 09. Nobody Knows Me Like You (00:03:56) 10. How Much Does It Cost (00:03:21)
[+] DRM foobar2000 1.5.5 / Замер динамического диапазона (DR) 1.1.1 ------------------------------------------------------------------------------ Анализ: Willie Nelson / The Border -------------------------------------------------------------------------------- DR Пики RMS Продолжительность трека -------------------------------------------------------------------------------- DR9 -0.66 дБ -11.13 дБ 5:10 01-The Border DR11 -0.30 дБ -13.06 дБ 3:41 02-Once Upon A Yesterday DR10 -0.30 дБ -11.35 дБ 2:58 03-What If I'm Out Of My Mind DR10 -0.30 дБ -12.34 дБ 3:49 04-I Wrote This Song For You DR9 -0.30 дБ -11.28 дБ 2:45 05-Kiss Me When You're Through DR10 -0.30 дБ -11.66 дБ 4:05 06-Many A Long And Lonesome Highway DR10 -0.30 дБ -12.57 дБ 3:06 07-Hank's Guitar DR10 -0.30 дБ -11.11 дБ 2:25 08-Made In Texas DR10 -0.30 дБ -11.95 дБ 3:56 09-Nobody Knows Me Like You DR11 -0.30 дБ -12.30 дБ 3:21 10-How Much Does It Cost -------------------------------------------------------------------------------- Количество треков: 10 Реальные значения DR: DR10 Частота: 96000 Гц Каналов: 2 Разрядность: 24 Битрейт: 2829 кбит/с Кодек: FLAC ================================================================================
Время раздачи: 24/7 (минимум до появления первых 3-5 скачавших, на раздачи не возвращаюсь) Первое правило участника файлообмена: "Скачал сам - дай скачать другому!"

Всего файлов в раздаче: 11 
01. The Border.flac108.22 MB
02. Once Upon A Yesterday.flac73.74 MB
03. What If I'm Out Of My Mind.flac58.87 MB
04. I Wrote This Song For You.flac78.22 MB
05. Kiss Me When You're Through.flac56.85 MB
06. Many A Long And Lonesome Highway.flac85.92 MB
07. Hank's Guitar.flac60.84 MB
08. Made In Texas.flac48.52 MB
09. Nobody Knows Me Like You.flac80.53 MB
10. How Much Does It Cost.flac67.80 MB
Показать все файлы

Похожие раздачи по запросу - Willie
2024-06-05 magnet DJ Pippi & Willie Graff - Universal Language [24-bit Hi-Res] (2024) FLAC 432.51 MB ↑ 0 ↓ 0

Комментарии


Зарегистрируйтесь чтобы добавить комментарий
Торрент клиент
byTorrent - программа для загрузки торрент-файлов.

Скачать byTorrent.exe (1,5 МБ)

Скачать byTorrent.zip (0,6 МБ)

Поддержи torrent.by
российских рублей
(300 российских рублей это 4$)

Обратная связь rss

End game ©