↑↓torrent.by
Поиск
Логин:  Регистрация
Пароль:

Однажды на востоке / Vojna policajtov / Once Upon a Time In The East (2024) WEB-DL 1080p от JNS82 | L

download Скачать торрент-файл   magnet Магнитная ссылка Размер: 6.59 GB Добавлен: 2024-06-05 05:00
Пиры будут получены из сети DHT
Последний сидер был замечен 2024-06-08 07:57
Однажды на востоке / Vojna policajtov / Once Upon a Time In The East Год выпуска: 2024 Выпущено: Словакия / Infilm Жанр: криминал Режиссер: Рудольф Бирманн / Rudolf Biermann В ролях: Александр Барта, Юрай Лой, Роберт Якаб, Ритмус, Якуб Штафек, Мариан Митас, Якуб Рыбарик, Владимир Хайду, Петра Дубаева, Бронислава Ковачикова, Бранислав Быстрянский, Аннамария Янек, Евгений Либезіюк, Матей Марусин, Мартин Никодим О фильме: В начале 90-хгодов, на фоне бурлящей преступности восточной Словакии, одиночный оперативник мастерски маневрирует на грани закона. Он погружается в сумрачный мир подполья, где каждый его шаг может стать последним. Но какие тайны раскроются. когда он сталкнотся с тем, что прячется в глубинах этого беззакония? Продолжительность: 02:30:23 Перевод: Любительский (многоголосый, закадровый) | Синема УС Субтитры: английские Автор релиза: JNS82. Формат: MKV Качество: WEB-DL 1080p | NF Видео: MPEG-4 AVC, (16:9), 1920x1080, 5438 Кбит/с, 25,000 fps Аудио #1: 48 kHz, AC3 Dolby Digital, 2/0 (L,R) ch, ~ 192 kbps | RUS | Аудио #2: 48 kHz, E-AC3 Dolby Digital, 3/2 (L,C,R,l,r) + LFE ch, ~ 640 kbps | SLVK |
[+] MediaInfoОбщее Уникальный идентификатор : 197328882230184736211697698662548882158 (0x9474290A990077C81F7926E458E9C2EE) Полное имя : D:TorrentsVojna.Policajtov.2024.1080p.NF_от_JNS82.mkv Формат : Matroska Версия формата : Version 4 Размер файла : 6,59 Гбайт Продолжительность : 2 ч. 30 м. Режим общего битрейта : Переменный Общий поток : 6 272 Кбит/сек Название фильма : Vojna.Policajtov.2024.1080p.NF_от_JNS82 Дата кодирования : UTC 2024-06-04 16:20:40 Программа кодирования : mkvmerge v79.0 ('Funeral Pyres') 64-bit Библиотека кодирования : libebml v1.4.4 + libmatroska v1.7.1 Видео Идентификатор : 1 Формат : AVC Формат/Информация : Advanced Video Codec Профиль формата : High@L4 Настройки формата : CABAC / 4 Ref Frames Параметр CABAC формата : Да Параметр RefFrames формата : 4 кадра Идентификатор кодека : V_MPEG4/ISO/AVC Продолжительность : 2 ч. 30 м. Вид битрейта : Переменный Битрейт : 5 438 Кбит/сек Максимальный битрейт : 20,0 Мбит/сек Ширина : 1 920 пикселей Высота : 1 080 пикселей Соотношение сторон : 16:9 Режим частоты кадров : Постоянный Частота кадров : 25,000 кадров/сек Цветовое пространство : YUV Субдискретизация насыщенности : 4:2:0 Битовая глубина : 8 бит Тип развёртки : Прогрессивная Бит/(Пиксели*Кадры) : 0.105 Размер потока : 5,71 Гбайт (87%) Библиотека кодирования : x264 core 148 r2727 7d026e8 Настройки программы : cabac=1 / ref=4 / deblock=1:0:0 / analyse=0x3:0x111 / me=umh / subme=10 / psy=1 / psy_rd=1.00:0.00 / mixed_ref=1 / me_range=120 / chroma_me=1 / trellis=2 / 8x8dct=1 / cqm=0 / deadzone=21,11 / fast_pskip=1 / chroma_qp_offset=-2 / threads=6 / lookahead_threads=1 / sliced_threads=0 / nr=0 / decimate=1 / interlaced=0 / bluray_compat=0 / stitchable=1 / constrained_intra=0 / bframes=16 / b_pyramid=2 / b_adapt=2 / b_bias=0 / direct=3 / weightb=1 / open_gop=0 / weightp=2 / keyint=250 / keyint_min=126 / scenecut=0 / intra_refresh=0 / rc_lookahead=250 / rc=crf / mbtree=1 / crf=31.0 / qcomp=0.50 / qpmin=6 / qpmax=51 / qpstep=4 / vbv_maxrate=20000 / vbv_bufsize=25000 / crf_max=0.0 / nal_hrd=vbr / filler=0 / ip_ratio=1.40 / aq=1:0.80 Язык : Slovak Default : Да Forced : Нет Аудио #1 Идентификатор : 2 Формат : AC-3 Формат/Информация : Audio Coding 3 Коммерческое название : Dolby Digital Идентификатор кодека : A_AC3 Продолжительность : 2 ч. 30 м. Вид битрейта : Постоянный Битрейт : 192 Кбит/сек Каналы : 2 канала Channel layout : L R Частота : 48,0 КГц Частота кадров : 31,250 кадров/сек (1536 SPF) Метод сжатия : С потерями Размер потока : 207 Мбайт (3%) Заголовок : MVO - Синема УС Язык : Russian Service kind : Complete Main Default : Да Forced : Нет Аудио #2 Идентификатор : 3 Формат : E-AC-3 Формат/Информация : Enhanced AC-3 Коммерческое название : Dolby Digital Plus Идентификатор кодека : A_EAC3 Продолжительность : 2 ч. 30 м. Вид битрейта : Постоянный Битрейт : 640 Кбит/сек Каналы : 6 каналов Channel layout : L R C LFE Ls Rs Частота : 48,0 КГц Частота кадров : 31,250 кадров/сек (1536 SPF) Метод сжатия : С потерями Размер потока : 688 Мбайт (10%) Заголовок : Original Язык : Slovak Service kind : Complete Main Default : Нет Forced : Нет Текст Идентификатор : 4 Формат : UTF-8 Идентификатор кодека : S_TEXT/UTF8 Идентификатор кодека/Информация : UTF-8 Plain Text Продолжительность : 2 ч. 22 м. Битрейт : 40 бит/сек Count of elements : 1319 Размер потока : 41,8 Кбайт (0%) Язык : English Default : Нет Forced : Нет

Всего файлов в раздаче: 1 
Vojna.Policajtov.2024.1080p.NF_от_JNS82.mkv6.59 GB

Похожие раздачи по запросу - Однажды
2024-06-04 magnet Однажды в России [11х01-08] (2024) WEBRip от Files-x 3.93 GB ↑ 0 ↓ 0
2024-06-04 magnet Однажды в России [11х08] [эфир от 03.06] (2024) SATRip 509.10 MB ↑ 1 ↓ 0
2024-05-28 magnet Однажды в России [11х07] [эфир от 27.05] (2024) SATRip 561.98 MB ↑ 0 ↓ 0
2024-05-27 magnet Однажды в России [11х01-06] (2024) WEBRip от Files-x 2.98 GB ↑ 0 ↓ 0
2024-05-27 magnet Однажды в России [11x01-06] (2024) WEBRip 720p от Files-x 5.30 GB ↑ 0 ↓ 0
2024-05-27 magnet Однажды в России [11x01-06] (2024) WEBRip 1080p от Files-x 8.18 GB ↑ 0 ↓ 0
2024-05-16 magnet Однажды в России [11x01-05] (2024) WEBRip 1080p от Files-x 6.90 GB ↑ 0 ↓ 0

Кто качает (только для создателя раздачи и модераторов): Локальные пиры отсутствуют

Комментарии


Зарегистрируйтесь чтобы добавить комментарий
Торрент клиент
byTorrent - программа для загрузки торрент-файлов.

Скачать byTorrent.exe (1,5 МБ)

Скачать byTorrent.zip (0,6 МБ)

Поддержи torrent.by
российских рублей
(300 российских рублей это 4$)

Обратная связь rss

End game ©