↑↓torrent.by
Поиск
Логин:  Регистрация
Пароль:

Подвиг / Jin gang chuan / The Sacrifice (2020) BDRip-AVC | D

download Скачать торрент-файл   magnet Магнитная ссылка Размер: 2.86 GB Раздают: 4 Качают: 0 Добавлен: il68k 2024-06-05 07:11
Пиры будут получены из сети DHT
Последний сидер был замечен сегодня в 00:14
Информация о фильме Название: Подвиг Оригинальное название: Jin gang chuan / The Sacrifice Год выхода: 2020 Жанр: военный, боевик, драма, история Режиссер: Гуань Ху, Франт Гво, Лу Ян В ролях: Чжан И, Джеки Ву, Ли Цзюсяо, Вижен Вэй, Ден Чао, Охо Оу, Цю Тянь, Чжоу Сыюй, Лю Сяньда, Владимир Ершов О фильме: 12 июля 1953 года, Корейская война. Для подготовки к битве за Кымсон отважные китайские добровольцы героически защищают от американской авиации стратегически важный мост через реку Пукханган. Страна: Китай Студия: China Film Group Corporation (CFGC) Продолжительность: 02:02:12 Перевод: Профессиональный (дублированный) | СиПиАй Филмз / CPI Films Файл Кодек: H.264 Качество: BDRip-AVC Видео: MPEG-4 AVC, 2513 Kbps, 1024x430 (2.39:1), 24.000 fps, 0.238 bit/pixel, High@L4.1 Звук 1: 48 kHz, AC3 Dolby Digital, 3/2 (L, C, R, l, r) + LFE ch, ~384 kbps | CPI Films Звук 2: 48 kHz, AC3 Dolby Digital, 3/2 (L, C, R, l, r) + LFE ch, ~448 kbps | Китайский Субтитры: русские (forced), английские (full) Семпл
[+] Скриншоты
[+] MediaInfo raw : 1024x430p 1:1 @ 10000000/416667 fps (cfr) x264 : using SAR=1/1 x264 : using cpu capabilities: MMX2 SSE2Fast SSSE3 SSE4.2 AVX FMA3 BMI2 AVX2 x264 : profile High, level 4.1, 4:2:0, 8-bit x264 : frame I:1013 Avg QP:15.18 size: 67077 x264 : frame P:40762 Avg QP:17.74 size: 27553 x264 : frame B:134196 Avg QP:19.39 size: 8285 x264 : consecutive B-frames: 3.1% 3.4% 10.1% 19.3% 15.3% 39.0% 4.2% 2.1% 1.2% 0.5% 0.5% 1.4% x264 : mb I I16..4: 14.0% 62.6% 23.3% x264 : mb P I16..4: 2.0% 15.9% 2.1% P16..4: 30.7% 25.7% 15.9% 0.0% 0.0% skip: 7.7% x264 : mb B I16..4: 0.3% 1.6% 0.2% B16..8: 34.4% 13.1% 3.7% direct: 7.7% skip:38.9% L0:40.1% L1:41.6% BI:18.3% x264 : 8x8 transform intra:77.2% inter:51.2% x264 : direct mvs spatial:99.7% temporal:0.3% x264 : coded y, uvDC, uvAC intra: 81.9% 75.0% 60.8% inter: 29.0% 21.9% 10.0% x264 : i16 v, h, dc, p: 44% 17% 16% 24% x264 : i8 v, h, dc, ddl, ddr, vr, hd, vl, hu: 9% 11% 17% 8% 11% 10% 11% 10% 14% x264 : i4 v, h, dc, ddl, ddr, vr, hd, vl, hu: 9% 9% 8% 9% 14% 12% 13% 11% 14% x264 : i8c dc, h, v, p: 53% 22% 14% 11% x264 : Weighted P-Frames: Y:9.5% UV:6.1% x264 : ref P L0: 49.4% 12.7% 14.0% 5.0% 4.4% 3.1% 2.7% 1.5% 1.6% 1.1% 1.1% 0.8% 0.9% 0.7% 0.8% 0.1% x264 : ref B L0: 76.0% 9.0% 4.4% 2.4% 1.7% 1.5% 1.5% 0.7% 0.8% 0.6% 0.4% 0.4% 0.3% 0.2% x264 : ref B L1: 96.0% 4.0% x264 : kb/s:2512.65 x264 : encoded 175971 frames, 26.86 fps, 2512.65 kb/s =================================================================== General Unique ID: 150151503309895657347111805293422138262 (0x70F620AD243573C6F2806E7A529B5396) Complete name: C:\Temp\The.Sacrifice.2020.VicolEntertainment.BDRip.AVC.mkv Format: Matroska Format version: Version 4 File size: 2.86 GiB Duration: 2 h 2 min Overall bit rate: 3 347 kb/s Frame rate: 24.000 FPS Movie name: The Sacrifice (2020) Vicol Entertainment BDRip-AVC _ vitolinform Encoded date: 2024-06-05 03:12:39 UTC Writing application: mkvmerge v85.0 ('Shame For You') 64-bit Writing library: libebml v1.4.5 + libmatroska v1.7.1 Attachments: poster.jpg / log.log Video ID: 1 Format: AVC Format/Info: Advanced Video Codec Format profile: High@L4.1 Format settings: CABAC / 15 Ref Frames Format settings, CABAC: Yes Format settings, Reference frames: 15 frames Codec ID: V_MPEG4/ISO/AVC Duration: 2 h 2 min Bit rate: 2 513 kb/s Width: 1 024 pixels Height: 430 pixels Display aspect ratio: 2.39:1 Frame rate mode: Constant Frame rate: 24.000 FPS Color space: YUV Chroma subsampling: 4:2:0 Bit depth: 8 bits Scan type: Progressive Bits/(Pixel*Frame): 0.238 Stream size: 2.14 GiB (75%) Title: Подвиг / Jin gang chuan / The Sacrifice (2020) Writing library: x264 core 164 r3172 c1c9931 Encoding settings: cabac=1 / ref=15 / deblock=1:-3:-3 / analyse=0x3:0x113 / me=umh / subme=10 / psy=1 / psy_rd=1.00:0.15 / mixed_ref=1 / me_range=32 / chroma_me=1 / trellis=2 / 8x8dct=1 / cqm=0 / deadzone=21, 11 / fast_pskip=0 / chroma_qp_offset=-3 / threads=13 / lookahead_threads=3 / sliced_threads=0 / nr=0 / decimate=0 / interlaced=0 / bluray_compat=0 / constrained_intra=0 / bframes=11 / b_pyramid=2 / b_adapt=2 / b_bias=0 / direct=3 / weightb=1 / open_gop=0 / weightp=2 / keyint=250 / keyint_min=24 / scenecut=40 / intra_refresh=0 / rc_lookahead=60 / rc=crf / mbtree=0 / crf=18.0 / qcomp=0.60 / qpmin=0 / qpmax=69 / qpstep=4 / vbv_maxrate=50000 / vbv_bufsize=62500 / crf_max=0.0 / nal_hrd=none / filler=0 / ip_ratio=1.40 / pb_ratio=1.30 / aq=1:1.00 Language: Chinese Default: Yes Forced: No Color range: Limited Color primaries: BT.709 Transfer characteristics: BT.709 Matrix coefficients: BT.709 Audio #1 ID: 2 Format: AC-3 Format/Info: Audio Coding 3 Commercial name: Dolby Digital Codec ID: A_AC3 Duration: 2 h 2 min Bit rate mode: Constant Bit rate: 384 kb/s Channel(s): 6 channels Channel layout: L R C LFE Ls Rs Sampling rate: 48.0 kHz Frame rate: 31.250 FPS (1536 SPF) Compression mode: Lossy Stream size: 336 MiB (11%) Title: Dub | CPI Films Language: Russian Service kind: Complete Main Default: Yes Forced: No AC3_metadata cmixlev: -3.0 dB surmixlev: -3 dB Audio #2 ID: 3 Format: AC-3 Format/Info: Audio Coding 3 Commercial name: Dolby Digital Codec ID: A_AC3 Duration: 2 h 2 min Bit rate mode: Constant Bit rate: 448 kb/s Channel(s): 6 channels Channel layout: L R C LFE Ls Rs Sampling rate: 48.0 kHz Frame rate: 31.250 FPS (1536 SPF) Compression mode: Lossy Stream size: 392 MiB (13%) Title: Chinese Language: Chinese Service kind: Complete Main Default: No Forced: No AC3_metadata cmixlev: -4.5 dB surmixlev: -6 dB Text #1 ID: 4 Format: UTF-8 Codec ID: S_TEXT/UTF8 Codec ID/Info: UTF-8 Plain Text Duration: 1 h 48 min Bit rate: 2 b/s Frame rate: 0.004 FPS Count of elements: 24 Stream size: 1.66 KiB (0%) Title: Forced Language: Russian Default: Yes Forced: No Text #2 ID: 5 Format: UTF-8 Codec ID: S_TEXT/UTF8 Codec ID/Info: UTF-8 Plain Text Duration: 1 h 52 min Bit rate: 36 b/s Frame rate: 0.184 FPS Count of elements: 1249 Stream size: 30.0 KiB (0%) Title: Full Language: English Default: No Forced: No Menu 00:00:00.000: en:Глава 01 00:11:14.750: en:Глава 02 00:19:03.666: en:Глава 03 00:27:17.541: en:Глава 04 00:40:59.458: en:Глава 05 00:48:53.041: en:Глава 06 00:57:36.041: en:Глава 07 01:10:25.208: en:Глава 08 01:20:14.416: en:Глава 09 01:33:29.208: en:Глава 10 01:42:46.458: en:Глава 11 01:55:19.458: en:Глава 12
Rip by vitolinform

Всего файлов в раздаче: 1 
The.Sacrifice.2020.VicolEntertainment.BDRip.AVC.mkv2.86 GB

Похожие раздачи по запросу - Подвиг
2024-06-04 magnet Подвиг / Jin gang chuan / The Sacrifice (2020) BDRip от New-Team | D 1.46 GB ↑ 0 ↓ 0
2024-06-04 magnet Подвиг / Jin gang chuan / The Sacrifice (2020) BDRip 720p от DoMiNo & селезень | D 5.78 GB ↑ 0 ↓ 0
2024-06-04 magnet Подвиг / Jin gang chuan / The Sacrifice (2020) BDRemux 1080p | D 21.07 GB ↑ 0 ↓ 0
2024-06-02 magnet Подвиг / Jin gang chuan / The Sacrifice (2020) WEB-DL 1080p | D 4.88 GB ↑ 0 ↓ 0
2023-12-11 magnet Подвиг разведчика (1947) WEB-DLRip-AVC от New-Team | цвет 1.09 GB ↑ 0 ↓ 0

Кто качает (только для создателя раздачи и модераторов):
ПользовательIP:портОтдалПринялОстатокСидируетТоррент клиентОбновился
1 Аноним 178.219.168.103:43362 1.80 GB 0.00 B 0.00 B да -qB4650- 23:58 2024-06-14
2 Аноним 46.118.59.12:55107 1.66 GB 0.00 B 0.00 B да -UT3230- 00:09 2024-06-15
3 Аноним 93.157.43.146:22226 392.92 MB 1.70 GB 0.00 B да -UT360W- 00:10 2024-06-15
4 Аноним 109.184.143.59:63380 6.58 MB 2.86 GB 0.00 B да -UT360W- 00:14 2024-06-15

Комментарии


Зарегистрируйтесь чтобы добавить комментарий
Торрент клиент
byTorrent - программа для загрузки торрент-файлов.

Скачать byTorrent.exe (1,5 МБ)

Скачать byTorrent.zip (0,6 МБ)

Поддержи torrent.by
российских рублей
(300 российских рублей это 4$)

Обратная связь rss

End game ©