↑↓torrent.by
Поиск
Логин:  Регистрация
Пароль:

Пять ночей с Фредди / Five Nights at Freddy's (2023) BDRip [H.264/1080p]

download Скачать торрент-файл   magnet Магнитная ссылка Размер: 14.63 GB Добавлен: il68k 2024-06-05 09:33
Пиры будут получены из сети DHT
Последний сидер был замечен 2024-06-07 22:30
Пять ночей с Фредди / Five Nights at Freddy's (2023)
Производство: США / Blumhouse Productions, Scott Cawthon Productions Жанр: ужасы, драма Режиссер: Эмма Тамми Актеры: Джош Хатчерсон, Пайпер Рубио, Элизабет Лэил, Мэттью Лиллард, Мэри Стюарт Мастерсон, Кевин Фостер, Кэт Коннер Стерлинг, Джессика Уайсс, Дэвид Линд, Кристиан Стоукс, Джозеф Поликуин, Грант Фили, Эшер Спенс, Дэвид Доути Описание: Пытаясь сохранить опекунство над сестрёнкой, Майк Шмидт устраивается работать ночным охранником в «Freddy Fazbear’s» — некогда популярный, но ныне закрытый семейный развлекательный центр. Несколько лет назад, когда Майк был ещё ребёнком, его младшего брата похитил неизвестный, и к этому событию парень снова и снова возвращается во сне, пытаясь вспомнить лицо похитителя. На новой работе в его снах появляются новые подробности — кажется, это место хранит зловещие тайны. Возраст: 18+ (зрителям, достигшим 18 лет. запрещено для детей) Релиз от: EniaHD Продолжительность: 01:49:25 Качество видео: BDRip 1080p Перевод: Дублированный (Bravo Records Georgia, RHS, TVShows, HotVoice 41, HDrezka Studio), профессиональный многоголосый (LostFilm, LineFilm), любительский двухголосый (AnPo studio), авторский (М. Яроцкий) Язык озвучки: Русский, английский Субтитры: Русские (Forced, Full), английские (SDH), французские, немецкие, иврит, португальские, испанские, украинские Видео: AVC/H.264, 1920х960, ~14.0 Mbps, 23.976 fps Аудио 01: AC3, 6 ch, 384 Kbps - Русский (DUB, Bravo Records Georgia) Аудио 02: AC3, 6 ch, 640 Kbps - Русский (DUB, Red Head Sound) Аудио 03: AC3, 6 ch, 448 Kbps - Русский (DUB, TVShows) Аудио 04: E-AC3, 6 ch, 384 Kbps - Русский (DUB, HotVoice 41) Аудио 05: AC3, 2 ch, 384 Kbps - Русский (DUB, HDrezka Studio) Аудио 06: AC3, 2 ch, 384 Kbps - Русский (MVO, LostFilm) Аудио 07: AC3, 2 ch, 384 Kbps - Русский (MVO, LineFilm) Аудио 08: AC3, 2 ch, 192 Kbps - Русский (DVO, AnPo studio) Аудио 09: AC3, 6 ch, 384 Kbps - Русский (AVO, М. Яроцкий) без цензуры 18+ Аудио 10: E-AC3, 8 ch, 1536 Kbps - Английский
[+] MediaInfo
x264 : frame I:1279  Avg QP:11.69  size:226784
x264 : frame P:33895 Avg QP:13.12  size:116454
x264 : frame B:122233 Avg QP:13.98  size: 59472
x264 : consecutive B-frames:  2.5%  2.4% 12.6%  7.0% 17.6% 45.6%  7.5%  0.7%  1.6%  1.1%  1.4%
encoded 157407 frames, 14021.56 kb/s

General
Unique ID                      : 324929954391131586256773258526940867380 (0xF4733B9F454391EFCE7FAA3BC31A2B34)
Complete name                  : Five.Nights.at.Freddys.2023.1080p.BluRay.x264-SPHD_EniaHD.mkv
Format                         : Matroska
Format version                 : Version 4
File size                      : 14.6 GiB
Duration                       : 1 h 49 min
Overall bit rate               : 19.1 Mb/s
Frame rate                     : 23.976 FPS
Movie name                     : Five Nights at Freddy's (2023) - EniaHD
Writing application            : mkvmerge v57.0.0 ('Till The End') 64-bit
Writing library                : libebml v1.4.2 + libmatroska v1.6.4

Video
ID                             : 1
Format                         : AVC
Format/Info                    : Advanced Video Codec
Format profile                 : High@L4.1
Format settings                : CABAC / 4 Ref Frames
Format settings, CABAC         : Yes
Format settings, Reference fra : 4 frames
Codec ID                       : V_MPEG4/ISO/AVC
Duration                       : 1 h 49 min
Bit rate                       : 14.0 Mb/s
Width                          : 1 920 pixels
Height                         : 960 pixels
Display aspect ratio           : 2.000
Frame rate mode                : Constant
Frame rate                     : 23.976 (24000/1001) FPS
Color space                    : YUV
Chroma subsampling             : 4:2:0
Bit depth                      : 8 bits
Scan type                      : Progressive
Bits/(Pixel*Frame)             : 0.317
Stream size                    : 10.7 GiB (73%)
Writing library                : x264 core 164 r3107+12 d987552 
Encoding settings              : cabac=1 / ref=4 / deblock=1:-3:-3 / analyse=0x3:0x113 / me=umh / subme=11 / psy=1 / psy_rd=1.05:0.00 / mixed_ref=1 / me_range=48 / chroma_me=1 / trellis=2 / 8x8dct=1 / cqm=0 / deadzone=21,11 / fast_pskip=0 / chroma_qp_offset=-2 / threads=30 / lookahead_threads=7 / sliced_threads=0 / nr=0 / decimate=0 / interlaced=0 / bluray_compat=0 / constrained_intra=0 / bframes=10 / b_pyramid=2 / b_adapt=2 / b_bias=0 / direct=3 / weightb=1 / open_gop=0 / weightp=2 / keyint=250 / keyint_min=23 / scenecut=40 / intra_refresh=0 / rc_lookahead=60 / rc=crf / mbtree=0 / crf=16.6 / qcomp=0.60 / qpmin=0 / qpmax=69 / qpstep=4 / vbv_maxrate=62500 / vbv_bufsize=78125 / crf_max=0.0 / nal_hrd=none / filler=0 / ip_ratio=1.30 / pb_ratio=1.20 / aq=3:0.80:1.00
Default                        : Yes
Forced                         : No
Color range                    : Limited
Color primaries                : BT.709
Transfer characteristics       : BT.709
Matrix coefficients            : BT.709

Audio #1
ID                             : 2
Format                         : AC-3
Format/Info                    : Audio Coding 3
Commercial name                : Dolby Digital
Codec ID                       : A_AC3
Duration                       : 1 h 49 min
Bit rate mode                  : Constant
Bit rate                       : 384 kb/s
Channel(s)                     : 6 channels
Channel layout                 : L R C LFE Ls Rs
Sampling rate                  : 48.0 kHz
Frame rate                     : 31.250 FPS (1536 SPF)
Compression mode               : Lossy
Stream size                    : 300 MiB (2%)
Title                          : Bravo Records Georgia / Movie Dubbing
Language                       : Russian
Service kind                   : Complete Main
Default                        : Yes
Forced                         : No

Audio #2
ID                             : 3
Format                         : AC-3
Format/Info                    : Audio Coding 3
Commercial name                : Dolby Digital
Codec ID                       : A_AC3
Duration                       : 1 h 49 min
Bit rate mode                  : Constant
Bit rate                       : 640 kb/s
Channel(s)                     : 6 channels
Channel layout                 : L R C LFE Ls Rs
Sampling rate                  : 48.0 kHz
Frame rate                     : 31.250 FPS (1536 SPF)
Compression mode               : Lossy
Stream size                    : 501 MiB (3%)
Title                          : Red Head Sound
Language                       : Russian
Service kind                   : Complete Main
Default                        : No
Forced                         : No

Audio #3
ID                             : 4
Format                         : AC-3
Format/Info                    : Audio Coding 3
Commercial name                : Dolby Digital
Codec ID                       : A_AC3
Duration                       : 1 h 49 min
Bit rate mode                  : Constant
Bit rate                       : 448 kb/s
Channel(s)                     : 6 channels
Channel layout                 : L R C LFE Ls Rs
Sampling rate                  : 48.0 kHz
Frame rate                     : 31.250 FPS (1536 SPF)
Compression mode               : Lossy
Stream size                    : 351 MiB (2%)
Title                          : TVShows
Language                       : Russian
Service kind                   : Complete Main
Default                        : No
Forced                         : No

Audio #4
ID                             : 5
Format                         : E-AC-3
Format/Info                    : Enhanced AC-3
Commercial name                : Dolby Digital Plus
Codec ID                       : A_EAC3
Duration                       : 1 h 49 min
Bit rate mode                  : Constant
Bit rate                       : 384 kb/s
Channel(s)                     : 6 channels
Channel layout                 : L R C LFE Ls Rs
Sampling rate                  : 48.0 kHz
Frame rate                     : 31.250 FPS (1536 SPF)
Compression mode               : Lossy
Stream size                    : 300 MiB (2%)
Title                          : HotVoice 41
Language                       : Russian
Service kind                   : Complete Main
Default                        : No
Forced                         : No

Audio #5
ID                             : 6
Format                         : AC-3
Format/Info                    : Audio Coding 3
Commercial name                : Dolby Digital
Codec ID                       : A_AC3
Duration                       : 1 h 49 min
Bit rate mode                  : Constant
Bit rate                       : 384 kb/s
Channel(s)                     : 2 channels
Channel layout                 : L R
Sampling rate                  : 48.0 kHz
Frame rate                     : 31.250 FPS (1536 SPF)
Compression mode               : Lossy
Stream size                    : 300 MiB (2%)
Title                          : HDrezka Studio
Language                       : Russian
Service kind                   : Complete Main
Default                        : No
Forced                         : No

Audio #6
ID                             : 7
Format                         : AC-3
Format/Info                    : Audio Coding 3
Commercial name                : Dolby Digital
Codec ID                       : A_AC3
Duration                       : 1 h 49 min
Bit rate mode                  : Constant
Bit rate                       : 384 kb/s
Channel(s)                     : 2 channels
Channel layout                 : L R
Sampling rate                  : 48.0 kHz
Frame rate                     : 31.250 FPS (1536 SPF)
Compression mode               : Lossy
Stream size                    : 300 MiB (2%)
Title                          : LostFilm
Language                       : Russian
Service kind                   : Complete Main
Default                        : No
Forced                         : No

Audio #7
ID                             : 8
Format                         : AC-3
Format/Info                    : Audio Coding 3
Commercial name                : Dolby Digital
Codec ID                       : A_AC3
Duration                       : 1 h 49 min
Bit rate mode                  : Constant
Bit rate                       : 384 kb/s
Channel(s)                     : 2 channels
Channel layout                 : L R
Sampling rate                  : 48.0 kHz
Frame rate                     : 31.250 FPS (1536 SPF)
Compression mode               : Lossy
Stream size                    : 301 MiB (2%)
Title                          : LineFilm
Language                       : Russian
Service kind                   : Complete Main
Default                        : No
Forced                         : No

Audio #8
ID                             : 9
Format                         : AC-3
Format/Info                    : Audio Coding 3
Commercial name                : Dolby Digital
Codec ID                       : A_AC3
Duration                       : 1 h 49 min
Bit rate mode                  : Constant
Bit rate                       : 192 kb/s
Channel(s)                     : 2 channels
Channel layout                 : L R
Sampling rate                  : 48.0 kHz
Frame rate                     : 31.250 FPS (1536 SPF)
Compression mode               : Lossy
Stream size                    : 150 MiB (1%)
Title                          : AnPo studio
Language                       : Russian
Service kind                   : Complete Main
Default                        : No
Forced                         : No

Audio #9
ID                             : 10
Format                         : AC-3
Format/Info                    : Audio Coding 3
Commercial name                : Dolby Digital
Codec ID                       : A_AC3
Duration                       : 1 h 49 min
Bit rate mode                  : Constant
Bit rate                       : 384 kb/s
Channel(s)                     : 6 channels
Channel layout                 : L R C LFE Ls Rs
Sampling rate                  : 48.0 kHz
Frame rate                     : 31.250 FPS (1536 SPF)
Compression mode               : Lossy
Stream size                    : 300 MiB (2%)
Title                          : Михаил Яроцкий
Language                       : Russian
Service kind                   : Complete Main
Default                        : No
Forced                         : No

Audio #10
ID                             : 11
Format                         : E-AC-3
Format/Info                    : Enhanced AC-3
Commercial name                : Dolby Digital Plus
Format profile                 : Blu-ray Disc
Format settings                : Dolby Surround EX
Codec ID                       : A_EAC3
Duration                       : 1 h 49 min
Bit rate mode                  : Constant
Bit rate                       : 1 536 kb/s
Channel(s)                     : 8 channels
Channel layout                 : L R C LFE Ls Rs Lb Rb
Sampling rate                  : 48.0 kHz
Frame rate                     : 31.250 FPS (1536 SPF)
Compression mode               : Lossy
Stream size                    : 1.17 GiB (8%)
Title                          : English
Language                       : English
Service kind                   : Complete Main
Default                        : No
Forced                         : No

Text #1
ID                             : 12
Format                         : UTF-8
Codec ID                       : S_TEXT/UTF8
Codec ID/Info                  : UTF-8 Plain Text
Duration                       : 1 h 47 min
Bit rate                       : 2 b/s
Frame rate                     : 0.010 FPS
Count of elements              : 62
Stream size                    : 1.63 KiB (0%)
Title                          : Russian (Forced)
Language                       : Russian
Default                        : Yes
Forced                         : No

Text #2
ID                             : 13
Format                         : UTF-8
Codec ID                       : S_TEXT/UTF8
Codec ID/Info                  : UTF-8 Plain Text
Duration                       : 1 h 47 min
Bit rate                       : 57 b/s
Frame rate                     : 0.179 FPS
Count of elements              : 1153
Stream size                    : 45.3 KiB (0%)
Title                          : Russian (iTunes)
Language                       : Russian
Default                        : No
Forced                         : No

Text #3
ID                             : 14
Format                         : UTF-8
Codec ID                       : S_TEXT/UTF8
Codec ID/Info                  : UTF-8 Plain Text
Duration                       : 1 h 49 min
Bit rate                       : 52 b/s
Frame rate                     : 0.257 FPS
Count of elements              : 1682
Stream size                    : 41.8 KiB (0%)
Title                          : English (SDH)
Language                       : English
Default                        : No
Forced                         : No

Text #4
ID                             : 15
Format                         : UTF-8
Codec ID                       : S_TEXT/UTF8
Codec ID/Info                  : UTF-8 Plain Text
Duration                       : 1 h 44 min
Bit rate                       : 33 b/s
Frame rate                     : 0.146 FPS
Count of elements              : 918
Stream size                    : 25.8 KiB (0%)
Title                          : French
Language                       : French
Default                        : No
Forced                         : No

Text #5
ID                             : 16
Format                         : UTF-8
Codec ID                       : S_TEXT/UTF8
Codec ID/Info                  : UTF-8 Plain Text
Duration                       : 1 h 43 min
Bit rate                       : 39 b/s
Frame rate                     : 0.154 FPS
Count of elements              : 957
Stream size                    : 29.7 KiB (0%)
Title                          : German
Language                       : German
Default                        : No
Forced                         : No

Text #6
ID                             : 17
Format                         : UTF-8
Codec ID                       : S_TEXT/UTF8
Codec ID/Info                  : UTF-8 Plain Text
Duration                       : 1 h 47 min
Bit rate                       : 54 b/s
Frame rate                     : 0.178 FPS
Count of elements              : 1148
Stream size                    : 43.1 KiB (0%)
Title                          : Hebrew
Language                       : Hebrew
Default                        : No
Forced                         : No

Text #7
ID                             : 18
Format                         : UTF-8
Codec ID                       : S_TEXT/UTF8
Codec ID/Info                  : UTF-8 Plain Text
Duration                       : 1 h 47 min
Bit rate                       : 36 b/s
Frame rate                     : 0.177 FPS
Count of elements              : 1140
Stream size                    : 28.6 KiB (0%)
Title                          : Portuguese
Language                       : Portuguese (BR)
Default                        : No
Forced                         : No

Text #8
ID                             : 19
Format                         : UTF-8
Codec ID                       : S_TEXT/UTF8
Codec ID/Info                  : UTF-8 Plain Text
Duration                       : 1 h 47 min
Bit rate                       : 34 b/s
Frame rate                     : 0.176 FPS
Count of elements              : 1134
Stream size                    : 27.5 KiB (0%)
Title                          : Spanish
Language                       : Spanish (Latin America)
Default                        : No
Forced                         : No

Text #9
ID                             : 20
Format                         : UTF-8
Codec ID                       : S_TEXT/UTF8
Codec ID/Info                  : UTF-8 Plain Text
Duration                       : 1 h 47 min
Bit rate                       : 51 b/s
Frame rate                     : 0.178 FPS
Count of elements              : 1145
Stream size                    : 40.8 KiB (0%)
Title                          : Ukrainian
Language                       : Ukrainian
Default                        : No
Forced                         : No

Menu
00:00:00.000                   : en:Chapter 1
00:05:02.719                   : en:Chapter 2
00:07:52.764                   : en:Chapter 3
00:11:14.966                   : en:Chapter 4
00:17:57.910                   : en:Chapter 5
00:21:17.193                   : en:Chapter 6
00:27:17.261                   : en:Chapter 7
00:31:17.793                   : en:Chapter 8
00:38:38.691                   : en:Chapter 9
00:46:59.316                   : en:Chapter 10
00:53:22.449                   : en:Chapter 11
01:00:53.483                   : en:Chapter 12
01:04:40.585                   : en:Chapter 13
01:11:58.272                   : en:Chapter 14
01:13:58.225                   : en:Chapter 15
01:19:55.749                   : en:Chapter 16
01:27:58.899                   : en:Chapter 17
01:33:19.260                   : en:Chapter 18
01:40:57.927                   : en:Chapter 19
01:44:15.124                   : en:Chapter 20
[+] Скриншоты

Всего файлов в раздаче: 1 
Five.Nights.at.Freddys.2023.1080p.BluRay.x264-SPHD_EniaHD.mkv14.63 GB

Похожие раздачи по запросу - Пять ночей
2024-06-12 magnet 7 дней, 7 ночей (2024) WEB-DLRip от MegaPeer 1.46 GB ↑ 0 ↓ 2
2024-06-12 magnet 7 дней, 7 ночей (2024) WEB-DL 1080p 3.53 GB ↑ 1 ↓ 8
2024-06-12 magnet 7 дней, 7 ночей (2024) WEB-DLRip 720p от DoMiNo & селезень 1.62 GB ↑ 0 ↓ 1
2024-06-12 magnet Александр Дюма - Сорок пять (2024) PDF 146.95 MB ↑ 0 ↓ 0
2024-06-10 magnet Пять / The Five [S01] (2016) BDRip 1080p | ShowJet 33.36 GB ↑ 0 ↓ 0
2024-05-31 magnet Гилберт Кит Честертон - Пять праведных преступников [сборник] (2024) MP3 362.28 MB ↑ 0 ↓ 0
2024-03-31 magnet Пять минут тишины. Море и горы [S05] (2023) WEBRip-AVC от Files-x 14.73 GB ↑ 0 ↓ 0

Кто качает (только для создателя раздачи и модераторов): Локальные пиры отсутствуют

Комментарии


Зарегистрируйтесь чтобы добавить комментарий
Торрент клиент
byTorrent - программа для загрузки торрент-файлов.

Скачать byTorrent.exe (1,5 МБ)

Скачать byTorrent.zip (0,6 МБ)

Поддержи torrent.by
российских рублей
(300 российских рублей это 4$)

Обратная связь rss

End game ©