↑↓torrent.by
Поиск
Логин:  Регистрация
Пароль:

Южный парк: Конец ожирения / Південний Парк: Кінець ожиріння / South Park: The End of Obesity (2024) WEB-DL-HEVC 2160p | 4K | SDR | P, L1 | UKR

download Скачать торрент-файл   magnet Магнитная ссылка Размер: 2.89 GB Добавлен: 2024-06-05 11:00
Пиры будут получены из сети DHT
Последний сидер был замечен 2024-06-09 18:57
Информация о фильме Название: Южный парк: Конец ожирения Оригинальное название: South Park: The End of Obesity Год выхода: 2024 Жанр: мультфильм, комедия Режиссер: Трей Паркер В ролях: Трей Паркер, Мэтт Стоун, Эйприл Стюарт, Мона Маршалл, Кимберли Брукс, Джесси Томас, Вернон Чатман, Дженнифер Хауэлл, Фераз Озел, Бетти Буги Паркер О фильме: Новое лекарство для похудения вызвало ажиотаж в Южном Парке. Отказ Картмана в доступе заставляет детей принять меры. Страна: США Продолжительность: 00:50:28 Перевод(ы): #1: Профессиональный (многоголосый закадровый) | DniproFilm (Украинский) #2: Любительский (одноголосый закадровый) | Колодій Трейлерів (Украинский) Файл Кодек: H.265 Качество: WEB-DL 2160p Видео: HEVC, 3840x2160 (16:9), 23.976 fps, 6270 kb/s Аудио 1: E-AC3, 48.0 kHz, 6 ch, 640 kb/s | UKR (DniproFilm) | 18+ Аудио 2: E-AC3, 48.0 kHz, 6 ch, 640 kb/s | UKR (Колодій Трейлерів) | 18+ Аудио 3: E-AC3, 48.0 kHz, 6 ch, 640 kb/s | ENG Субтитры: английские (full, SDH)
[+] MIGeneral Unique ID : 40909965194356567705221722247321019691 (0x1EC6F902CFFEE8554556D6D69122E52B) Complete name : South.Park.The.End.of.Obesity.2024.WEB-DL.2160p.SDR.mkv Format : Matroska Format version : Version 4 File size : 2.89 GiB Duration : 50 min 28 s Overall bit rate : 8 193 kb/s Frame rate : 23.976 FPS Movie name : Південний Парк: Кінець Ожиріння / South Park: The End of Obesity (2024) Encoded date : 2024-05-31 18:48:07 UTC Writing application : mkvmerge v83.0 ('Circle Of Friends') 64-bit Writing library : libebml v1.4.5 + libmatroska v1.7.1 Cover : Yes Attachments : cover.jpg Video ID : 1 Format : HEVC Format/Info : High Efficiency Video Coding Format profile : Main@L5@Main Codec ID : V_MPEGH/ISO/HEVC Duration : 50 min 28 s Bit rate : 6 270 kb/s Width : 3 840 pixels Height : 2 160 pixels Display aspect ratio : 16:9 Frame rate mode : Constant Frame rate : 23.976 (24000/1001) FPS Color space : YUV Chroma subsampling : 4:2:0 Bit depth : 8 bits Bits/(Pixel*Frame) : 0.032 Stream size : 2.21 GiB (77%) Title : WEB-DL, UHD 4K, 2160p, SDR Language : English Default : Yes Forced : No Color range : Limited Color primaries : BT.709 Transfer characteristics : BT.709 Matrix coefficients : BT.709 Audio #1 ID : 2 Format : E-AC-3 Format/Info : Enhanced AC-3 Commercial name : Dolby Digital Plus Codec ID : A_EAC3 Duration : 50 min 28 s Bit rate mode : Constant Bit rate : 640 kb/s Channel(s) : 6 channels Channel layout : L R C LFE Ls Rs Sampling rate : 48.0 kHz Frame rate : 31.250 FPS (1536 SPF) Compression mode : Lossy Stream size : 231 MiB (8%) Title : MVO E-AC3 5.1 640 kbps Language : Ukrainian Service kind : Complete Main Default : Yes Forced : No Audio #2 ID : 3 Format : E-AC-3 Format/Info : Enhanced AC-3 Commercial name : Dolby Digital Plus Codec ID : A_EAC3 Duration : 50 min 28 s Bit rate mode : Constant Bit rate : 640 kb/s Channel(s) : 6 channels Channel layout : L R C LFE Ls Rs Sampling rate : 48.0 kHz Frame rate : 31.250 FPS (1536 SPF) Compression mode : Lossy Stream size : 231 MiB (8%) Title : SVO E-AC3 5.1 640 kbps Language : Ukrainian Service kind : Complete Main Default : No Forced : No Audio #3 ID : 4 Format : E-AC-3 Format/Info : Enhanced AC-3 Commercial name : Dolby Digital Plus Codec ID : A_EAC3 Duration : 50 min 28 s Bit rate mode : Constant Bit rate : 640 kb/s Channel(s) : 6 channels Channel layout : L R C LFE Ls Rs Sampling rate : 48.0 kHz Frame rate : 31.250 FPS (1536 SPF) Compression mode : Lossy Stream size : 231 MiB (8%) Title : Original E-AC3 5.1 640 kbps Language : English Service kind : Complete Main Default : Yes Forced : No Text #1 ID : 5 Format : UTF-8 Codec ID : S_TEXT/UTF8 Codec ID/Info : UTF-8 Plain Text Duration : 49 min 45 s Bit rate : 96 b/s Frame rate : 0.354 FPS Count of elements : 1056 Stream size : 35.3 KiB (0%) Title : English Language : English Default : No Forced : No Text #2 ID : 6 Format : UTF-8 Codec ID : S_TEXT/UTF8 Codec ID/Info : UTF-8 Plain Text Duration : 50 min 23 s Bit rate : 99 b/s Frame rate : 0.373 FPS Count of elements : 1129 Stream size : 36.9 KiB (0%) Title : English Language : English Default : No Forced : No
[+] Скриншоты

Всего файлов в раздаче: 1 
South.Park.The.End.of.Obesity.2024.WEB-DL.2160p.SDR.mkv2.89 GB

Похожие раздачи по запросу - Южный
2024-05-26 magnet Южный Парк: Конец ожирения / South Park: The End of Obesity [Specials] (2024) WEB-DL 1080p | HDrezka Studio, RuDub 1.70 GB ↑ 3 ↓ 2

Комментарии


Зарегистрируйтесь чтобы добавить комментарий
Торрент клиент
byTorrent - программа для загрузки торрент-файлов.

Скачать byTorrent.exe (1,5 МБ)

Скачать byTorrent.zip (0,6 МБ)

Поддержи torrent.by
российских рублей
(300 российских рублей это 4$)

Обратная связь rss

End game ©