↑↓torrent.by
Поиск
Логин:  Регистрация
Пароль:

Кролецып и Хомяк Тьмы / Кролецип та Хом'як Темряви / Chickenhare and the Hamster of Darkness (2022) BDRip 1080p | D | UKR

download Скачать торрент-файл   magnet Магнитная ссылка Размер: 7.10 GB Добавлен: 2024-06-05 11:00
Пиры будут получены из сети DHT
Последний сидер был замечен 2024-06-05 11:00
Информация о фильме Название: Кролецып и Хомяк Тьмы Оригинальное название: Chickenhare and the Hamster of Darkness Год выхода: 2022 Жанр: мультфильм, комедия, приключения, семейный Режиссер: Бен Стассен, Бенжамен Муске В ролях: Тома Соливерес, Хлоя Жуанне, Алан Обер, Николя Мори, Фредерик Попович, Антуан Шумский, Ричард Ле Руссель, Антуан Фере, Лорен Жаке, Николя Бушу О фильме: Харизматичный и отважный Кролецып больше всего на свете мечтает стать искателем приключений. Наполовину кролик, наполовину цыплёнок — он сочетает лучшие качества обоих животных. Когда его дому угрожает опасность, он отправляется в авантюрное путешествие по удивительным местам, чтобы найти древний артефакт — таинственного Хомяка Тьмы. Страна: Бельгия, Франция Продолжительность: 01:31:56 Перевод: Дублированный | Cinema Sound Production (Украинский) Файл Кодек: x.264 Качество: BDRip 1080p Видео: AVC, 1920x804 (2.40:1), 23.976 fps, 9012 kb/s Аудио 1: AC3, 48.0 kHz, 6 ch, 384 kb/s | UKR Аудио 2: E-AC3, 48.0 kHz, 6 ch, 1024 kb/s | ENG Аудио 3: AC3, 48.0 kHz, 6 ch, 640 kb/s | ENG Субтитры: английские Трейлер
[+] MIGeneral Unique ID : 187703185740404313858636284580827699175 (0x8D36519041B65EADE6528CFFAB1317E7) Complete name : Chickenhare and the Hamster of Darkness (2022) BDRip 1080p Ukr Eng .mkv Format : Matroska Format version : Version 4 File size : 7.10 GiB Duration : 1 h 31 min Overall bit rate : 11.1 Mb/s Movie name : Chickenhare and the Hamster of Darkness (2022) Encoded date : UTC 2024-06-02 16:31:04 Writing application : mkvmerge v84.0 ('Sleeper') 64-bit Writing library : libebml v1.4.5 + libmatroska v1.7.1 Video ID : 1 Format : AVC Format/Info : Advanced Video Codec Format profile : High@L4.1 Format settings : CABAC / 5 Ref Frames Format settings, CABAC : Yes Format settings, Reference frames : 5 frames Codec ID : V_MPEG4/ISO/AVC Duration : 1 h 31 min Bit rate : 9 012 kb/s Width : 1 920 pixels Height : 804 pixels Display aspect ratio : 2.40:1 Frame rate mode : Constant Frame rate : 23.976 (24000/1001) FPS Color space : YUV Chroma subsampling : 4:2:0 Bit depth : 8 bits Scan type : Progressive Bits/(Pixel*Frame) : 0.243 Stream size : 5.79 GiB (81%) Writing library : x264 core 163 Encoding settings : cabac=1 / ref=5 / deblock=1:-3:-3 / analyse=0x3:0x113 / me=umh / subme=11 / psy=1 / psy_rd=1.00:0.00 / mixed_ref=1 / me_range=32 / chroma_me=0 / trellis=2 / 8x8dct=1 / cqm=0 / deadzone=21,11 / fast_pskip=0 / chroma_qp_offset=-2 / threads=19 / lookahead_threads=4 / sliced_threads=0 / nr=0 / decimate=1 / interlaced=0 / bluray_compat=0 / constrained_intra=0 / bframes=10 / b_pyramid=2 / b_adapt=2 / b_bias=0 / direct=0 / weightb=1 / open_gop=0 / weightp=2 / keyint=240 / keyint_min=23 / scenecut=40 / intra_refresh=0 / rc_lookahead=100 / rc=2pass / mbtree=0 / bitrate=9012 / ratetol=1.0 / qcomp=0.70 / qpmin=0 / qpmax=69 / qpstep=5 / cplxblur=20.0 / qblur=0.5 / vbv_maxrate=50000 / vbv_bufsize=62500 / nal_hrd=none / filler=0 / ip_ratio=1.40 / pb_ratio=1.30 / aq=1:0.80 Default : Yes Forced : No Color range : Limited Color primaries : BT.709 Transfer characteristics : BT.709 Matrix coefficients : BT.709 Audio #1 ID : 2 Format : AC-3 Format/Info : Audio Coding 3 Commercial name : Dolby Digital Codec ID : A_AC3 Duration : 1 h 31 min Bit rate mode : Constant Bit rate : 384 kb/s Channel(s) : 6 channels Channel layout : L R C LFE Ls Rs Sampling rate : 48.0 kHz Frame rate : 31.250 FPS (1536 SPF) Compression mode : Lossy Stream size : 253 MiB (3%) Title : DUB (Cinema Sound Production) Language : Ukrainian Service kind : Complete Main Default : Yes Forced : No Audio #2 ID : 3 Format : E-AC-3 Format/Info : Enhanced AC-3 Commercial name : Dolby Digital Plus Codec ID : A_EAC3 Duration : 1 h 31 min Bit rate mode : Constant Bit rate : 1 024 kb/s Channel(s) : 6 channels Channel layout : L R C LFE Ls Rs Sampling rate : 48.0 kHz Frame rate : 31.250 FPS (1536 SPF) Bit depth : 16 bits Compression mode : Lossy Stream size : 673 MiB (9%) Title : Original Language : English Service kind : Complete Main Default : No Forced : No Audio #3 ID : 4 Format : AC-3 Format/Info : Audio Coding 3 Commercial name : Dolby Digital Codec ID : A_AC3 Duration : 1 h 31 min Bit rate mode : Constant Bit rate : 640 kb/s Channel(s) : 6 channels Channel layout : L R C LFE Ls Rs Sampling rate : 48.0 kHz Frame rate : 31.250 FPS (1536 SPF) Compression mode : Lossy Stream size : 421 MiB (6%) Title : Original Language : English Service kind : Complete Main Default : No Forced : No Text ID : 5 Format : UTF-8 Codec ID : S_TEXT/UTF8 Codec ID/Info : UTF-8 Plain Text Duration : 1 h 29 min Bit rate : 53 b/s Count of elements : 1142 Stream size : 35.3 KiB (0%) Title : Full Language : English Default : No Forced : No Menu 00:00:00.000 : fr:(01)00:00:00:000 00:07:24.444 : fr:(02)00:07:24:444 00:14:36.876 : fr:(03)00:14:36:876 00:22:20.339 : fr:(04)00:22:20:339 00:30:27.826 : fr:(05)00:30:27:826 00:37:59.277 : fr:(06)00:37:59:277 00:44:21.659 : fr:(07)00:44:21:659 00:51:56.113 : fr:(08)00:51:56:113 00:58:27.504 : fr:(09)00:58:27:504 01:06:02.959 : fr:(10)01:06:02:959 01:12:58.374 : fr:(11)01:12:58:374 01:26:19.174 : fr:(12)01:26:19:174
[+] Скриншоты

Всего файлов в раздаче: 1 
Chickenhare and the Hamster of Darkness (2022) BDRip 1080p Ukr Eng [Hurtom].mkv7.10 GB

Кто качает (только для создателя раздачи и модераторов): Локальные пиры отсутствуют

Комментарии


Зарегистрируйтесь чтобы добавить комментарий
Торрент клиент
byTorrent - программа для загрузки торрент-файлов.

Скачать byTorrent.exe (1,5 МБ)

Скачать byTorrent.zip (0,6 МБ)

Поддержи torrent.by
российских рублей
(300 российских рублей это 4$)

Обратная связь rss

End game ©