↑↓torrent.by
Поиск
Логин:  Регистрация
Пароль:

Акулы в Париже / Sous la Seine / Under Paris (2024) WEB-DLRip 720p от DoMiNo & селезень | D

download Скачать торрент-файл   magnet Магнитная ссылка Размер: 2.40 GB Раздают: 1 Качают: 0 Добавлен: il68k 2024-06-05 15:50
Пиры будут получены из сети DHT
Последний сидер был замечен сегодня в 20:38
Информация о фильме Название: Акулы в Париже Оригинальное название: Sous la Seine / Under Paris Год выхода: 2024 Жанр: ужасы, боевик, триллер, драма, спорт Режиссер: Ксавье Жанс В ролях: Беренис Бежо, Нассим Льес, Анаис Парельо, Иньяки Лартиг, Леа Левиан, Жюльен Жаку, Хосе Антонио Педроса Морено О фильме: В Сене появляется гигантская акула. Чтобы спасти Париж и гостей города от кровавой бани, пережившая утрату ученая вынуждена обратиться к своему трагическому прошлому. Страна: Франция Студия: Let Me Be Продолжительность: 01:43:56 Перевод: Профессиональный (дублированный) | Videofilm International Ltd. Файл Формат: Matroska Качество: WEB-DLRip 720p Видео: 1280x720 at 24.000 fps, x264@L4.1, ~2668 kbps Аудио: AC3, 48.0 kHz, 6 ch, ~640 kbps | Русский Субтитры: русские (forced, 2x full), французские, английские Семпл
[+] Скриншоты
[+] MediaInfo
Общее
Уникальный идентификатор                 : 259794967193129125932767159801668042270 (0xC372B0CFDE8E477BE4836B264D91FE1E)
Полное имя                               : Under.Paris.2024.DUB.NF.WEB-DLRip.720p.x264.seleZen.mkv
Формат                                   : Matroska
Версия формата                           : Version 4
Размер файла                             : 2,40 Гбайт
Продолжительность                        : 1 ч. 43 м.
Общий поток                              : 3 310 Кбит/сек
Частота кадров                           : 24,000 кадра/сек
Название фильма                          : Under.Paris.2024.DUB.NF.WEB-DLRip.720p.x264.seleZen
Дата кодирования                         : 2024-06-05 11:50:17 UTC
Программа кодирования                    : mkvmerge v84.0 ('Sleeper') 64-bit
Библиотека кодирования                   : libebml v1.4.5 + libmatroska v1.7.1
Обложка                                  : Yes
Attachments                              : cover.jpg / small_cover.jpg

Видео
Идентификатор                            : 1
Формат                                   : AVC
Формат/Информация                        : Advanced Video Codec
Профиль формата                          : High@L4.1
Настройки формата                        : CABAC / 5 Ref Frames
Параметр CABAC формата                   : Да
Параметр RefFrames формата               : 5 кадров
Идентификатор кодека                     : V_MPEG4/ISO/AVC
Продолжительность                        : 1 ч. 43 м.
Битрейт                                  : 2 668 Кбит/сек
Ширина                                   : 1 280 пикселей
Высота                                   : 720 пикселей
Соотношение сторон                       : 16:9
Режим частоты кадров                     : Постоянный
Частота кадров                           : 24,000 кадра/сек
Цветовое пространство                    : YUV
Субдискретизация насыщенности            : 4:2:0
Битовая глубина                          : 8 бит
Тип развёртки                            : Прогрессивная
Бит/(Пиксели*Кадры)                      : 0.121
Размер потока                            : 1,94 Гбайт (81%)
Заголовок                                : -=DoMiNo=-
Библиотека кодирования                   : x264 core 164 r3191 -DoMiNo
Настройки программы                      : cabac=1 / ref=5 / deblock=1:0:0 / analyse=0x3:0x133 / me=umh / subme=10 / psy=1 / psy_rd=1.00:0.00 / mixed_ref=1 / me_range=32 / chroma_me=1 / trellis=2 / 8x8dct=1 / cqm=0 / deadzone=21,11 / fast_pskip=0 / chroma_qp_offset=-2 / threads=22 / lookahead_threads=5 / sliced_threads=0 / nr=0 / decimate=1 / interlaced=0 / bluray_compat=0 / constrained_intra=0 / bframes=14 / b_pyramid=2 / b_adapt=2 / b_bias=0 / direct=3 / weightb=1 / open_gop=0 / weightp=2 / keyint=240 / keyint_min=24 / scenecut=40 / intra_refresh=0 / rc_lookahead=60 / rc=crf / mbtree=0 / crf=21.3 / qcomp=0.60 / qpmin=0 / qpmax=69 / qpstep=4 / vbv_maxrate=50000 / vbv_bufsize=62500 / crf_max=0.0 / nal_hrd=none / filler=0 / ip_ratio=1.40 / pb_ratio=1.30 / aq=1:0.90
Язык                                     : French
Default                                  : Да
Forced                                   : Нет

Аудио
Идентификатор                            : 2
Формат                                   : AC-3
Формат/Информация                        : Audio Coding 3
Коммерческое название                    : Dolby Digital
Идентификатор кодека                     : A_AC3
Продолжительность                        : 1 ч. 43 м.
Вид битрейта                             : Постоянный
Битрейт                                  : 640 Кбит/сек
Каналы                                   : 6 каналов
Channel layout                           : L R C LFE Ls Rs
Частота                                  : 48,0 КГц
Частота кадров                           : 31,250 кадров/сек (1536 SPF)
Метод сжатия                             : С потерями
Размер потока                            : 476 Мбайт (19%)
Заголовок                                : Dub -Videofilm International Ltd.
Язык                                     : Russian
Service kind                             : Complete Main
Default                                  : Да
Forced                                   : Нет

Текст #1
Идентификатор                            : 3
Формат                                   : UTF-8
Идентификатор кодека                     : S_TEXT/UTF8
Идентификатор кодека/Информация          : UTF-8 Plain Text
Продолжительность                        : 1 ч. 8 м.
Битрейт                                  : 1 бит/сек
Частота кадров                           : 0,004 кадр/сек
Count of elements                        : 15
Размер потока                            : 667 байт (0%)
Заголовок                                : Forced
Язык                                     : Russian
Default                                  : Нет
Forced                                   : Нет

Текст #2
Идентификатор                            : 4
Формат                                   : UTF-8
Идентификатор кодека                     : S_TEXT/UTF8
Идентификатор кодека/Информация          : UTF-8 Plain Text
Продолжительность                        : 1 ч. 34 м.
Битрейт                                  : 82 бит/сек
Частота кадров                           : 0,173 кадр/сек
Count of elements                        : 979
Размер потока                            : 56,7 Кбайт (0%)
Заголовок                                : Full
Язык                                     : Russian
Default                                  : Нет
Forced                                   : Нет

Текст #3
Идентификатор                            : 5
Формат                                   : UTF-8
Идентификатор кодека                     : S_TEXT/UTF8
Идентификатор кодека/Информация          : UTF-8 Plain Text
Продолжительность                        : 1 ч. 41 м.
Битрейт                                  : 64 бит/сек
Частота кадров                           : 0,165 кадр/сек
Count of elements                        : 1002
Размер потока                            : 48,1 Кбайт (0%)
Заголовок                                : Full
Язык                                     : Russian
Default                                  : Нет
Forced                                   : Нет

Текст #4
Идентификатор                            : 6
Формат                                   : UTF-8
Идентификатор кодека                     : S_TEXT/UTF8
Идентификатор кодека/Информация          : UTF-8 Plain Text
Продолжительность                        : 1 ч. 37 м.
Битрейт                                  : 0 бит/сек
Частота кадров                           : 0,003 кадр/сек
Count of elements                        : 17
Размер потока                            : 625 байт (0%)
Заголовок                                : Forced
Язык                                     : French
Default                                  : Нет
Forced                                   : Нет

Текст #5
Идентификатор                            : 7
Формат                                   : UTF-8
Идентификатор кодека                     : S_TEXT/UTF8
Идентификатор кодека/Информация          : UTF-8 Plain Text
Продолжительность                        : 1 ч. 41 м.
Битрейт                                  : 68 бит/сек
Частота кадров                           : 0,229 кадр/сек
Count of elements                        : 1394
Размер потока                            : 50,5 Кбайт (0%)
Заголовок                                : SDH
Язык                                     : French
Default                                  : Нет
Forced                                   : Нет

Текст #6
Идентификатор                            : 8
Формат                                   : UTF-8
Идентификатор кодека                     : S_TEXT/UTF8
Идентификатор кодека/Информация          : UTF-8 Plain Text
Продолжительность                        : 1 ч. 41 м.
Битрейт                                  : 68 бит/сек
Частота кадров                           : 0,256 кадр/сек
Count of elements                        : 1554
Размер потока                            : 51,0 Кбайт (0%)
Заголовок                                : SDH
Язык                                     : English
Default                                  : Нет
Forced                                   : Нет

Меню
00:00:00.000                             : en:Part 01
01:36:28.450                             : en:Credits
Релиз от: -=DoMiNo=-

Всего файлов в раздаче: 1 
Under.Paris.2024.DUB.NF.WEB-DLRip.720p.x264.seleZen.mkv2.40 GB

Похожие раздачи по запросу - Акулы
2024-06-10 magnet Акулы в Париже / Sous la Seine / Under Paris (2024) WEB-DLRip-AVC | D 1.46 GB ↑ 38 ↓ 16
2024-06-09 magnet Акулы в Париже / Sous la Seine / Under Paris (2024) WEB-DLRip-AVC от ExKinoRay | D 745.72 MB ↑ 0 ↓ 0
2024-06-07 magnet Акулы в Париже / Sous la Seine / Under Paris (2024) WEB-DLRip-AVC | КПК | D 545.26 MB ↑ 0 ↓ 0
2024-06-05 magnet Акулы в Париже / Sous la Seine / Under Paris (2024) WEB-DLRip от New-Team | D 1.46 GB ↑ 1 ↓ 3
2024-06-05 magnet Акулы в Париже / Sous la Seine / Under Paris (2024) WEB-DL 1080p от EniaHD | D 5.04 GB ↑ 4 ↓ 39

Кто качает (только для создателя раздачи и модераторов):
ПользовательIP:портОтдалПринялОстатокСидируетТоррент клиентОбновился
1 Аноним 147.235.214.148:55283 95.78 MB 0.00 B 0.00 B да -UT360W- 20:18 2024-06-17

Комментарии


Зарегистрируйтесь чтобы добавить комментарий
Торрент клиент
byTorrent - программа для загрузки торрент-файлов.

Скачать byTorrent.exe (1,5 МБ)

Скачать byTorrent.zip (0,6 МБ)

Поддержи torrent.by
российских рублей
(300 российских рублей это 4$)

Обратная связь rss

End game ©