↑↓torrent.by
Поиск
Логин:  Регистрация
Пароль:

Люди мафии / Made Men (1999) WEB-DLRip 720p от New-Team | P, A

download Скачать торрент-файл   magnet Магнитная ссылка Размер: 2.18 GB Добавлен: 2024-06-05 17:00
Пиры будут получены из сети DHT
Последний сидер был замечен 2024-06-06 04:26
Страна: США Производство: Decade Pictures, Made Men Productions Inc. Жанр: боевик, триллер, комедия Год выпуска: 1999 Продолжительность: 01:26:54 Перевод: Профессиональный (многоголосый, закадровый), Авторский (одноголосый закадровый) Сергей Визгунов Оригинальная аудиодорожка: английский Cубтитры: русский Режиссер: Луис Морно / Louis Morneau В ролях: Джеймс Белуши, Тимоти Далтон, Джейми Харрис, Дэвид О'Доннелл, Карлтон Уилборн, Ванесса Эйнджел, Стив Рэйлсбэк, Майкл Бич... Подробнее об актерах Описание: Билл Вануччи, включенный в программу защиты свидетелей, в страшной спешке подпиливает пули, готовит оружие и отправляет свою жену Дебру в Лос-Анджелес. Приходят неприятные люди с оружием и собираются пытать Билла, упрекая его в том, что он предал Шкиппера. Билл говорит, что он просто украл у него деньги. Ребята хотят знать, где спрятаны деньги Шкиппера, и под шум сверла Билл обещает показать, где деньги зарыты. Уже в машине Билл обещает всем по четыре миллиона из 12 украденных, а на заправке к бандитам подходит Декс, местный шериф города Хармони, интересующийся, откуда появились «неместные». Шериф сообщает о них по рации своему напарнику Корли и просит последить за машиной. Билл «разводит» недалеких бандитов, расписывая, как на бензоколонке они хотели убить отсутствующих, и, воспользовавшись дракой, бежит. Тем временем помощник шерифа Корли просит предъявить права у оставшегося у машины бандита и получает несколько пуль в грудь. Билл заходит в какой-то большойамбар и нарывается на местных крутых ребят, устроивших там завод по переработке наркотиков под руководством колоритнейшего Кайла. Билл предлагает Кайлу 12 миллионов. Начинаетсяя крутая перестрелка. Итак, подведем итоги: Билл, прикарманивший 12 «лимонов» у босса чикагской мафии, должен спасти свою шкуру и, желательно, деньги от посланных за ним бандитов, местных наркодельцов и шерифа, у которого убили любимого помощника… Исходник: WEB-DL 1080p Тип релиза: WEB-DLRip 720p Контейнер: MKV Видео: 1080x720 (3:2), 25,000 кадров/сек, x264 core 164 r3182 ~ 3 014 кбит/сек, 0.155 бит/пиксель Аудио: 48 кГц, Dolby Digital AC3 2.0, 192 кбит/сек MVO Аудио: 48 кГц, Dolby Digital AC3 2.0, 192 кбит/сек Сергей Визгунов Аудио: 48 кГц, Dolby Digital AC3 2.0, 192 кбит/сек Английский Оригинальная навигация по главам: есть Субтитры: SoftSub (srt) Раздача от:
[+] MediaInfo Общее Полное имя : Люди мафии.1999.WEB-DLRip720p__by_AVP_Studio.mkv Формат : Matroska Версия формата : Version 4 Размер файла : 2,18 Гбайт Продолжительность : 1 ч. 26 мин. Общий битрейт : 3 590 Кбит/сек Частота кадров : 25,000 кадров/сек Дата кодирования : 2024-06-05 11:00:29 UTC Программа кодирования : mkvmerge v84.0 ('Sleeper') 64-bit Библиотека кодирования : libebml v1.4.5 + libmatroska v1.7.1 Видео Идентификатор : 1 Формат : AVC Формат/Информация : Advanced Video Codec Профиль формата : High@L4.1 Настройки формата : CABAC / 8 Ref Frames Параметр CABAC формата : Да Параметр RefFrames формата : 8 кадров Идентификатор кодека : V_MPEG4/ISO/AVC Продолжительность : 1 ч. 26 мин. Битрейт : 3 014 Кбит/сек Ширина : 1 080 пикселей Высота : 720 пикселей Соотношение сторон дисплея : 3:2 Режим частоты кадров : Постоянный Частота кадров : 25,000 кадров/сек Цветовое пространство : YUV Цветовая субдискретизация : 4:2:0 Битовая глубина : 8 бит Тип развёртки : Прогрессивная Бит/(Пиксели*Кадры) : 0.155 Размер потока : 1,83 Гбайт (84%) Заголовок : Исходник BDRemux 1080p Библиотека кодирования : x264 core 164 r3182 be4f020 Параметры библиотеки кодирования : cabac=1 / ref=8 / deblock=1:-3:-3 / analyse=0x3:0x133 / me=umh / subme=10 / psy=1 / psy_rd=1.00:0.00 / mixed_ref=1 / me_range=32 / chroma_me=1 / trellis=2 / 8x8dct=1 / cqm=0 / deadzone=21,11 / fast_pskip=1 / chroma_qp_offset=-2 / threads=6 / lookahead_threads=1 / sliced_threads=0 / nr=0 / decimate=0 / interlaced=0 / bluray_compat=0 / constrained_intra=0 / bframes=8 / b_pyramid=2 / b_adapt=2 / b_bias=0 / direct=3 / weightb=1 / open_gop=0 / weightp=2 / keyint=250 / keyint_min=25 / scenecut=40 / intra_refresh=0 / rc=2pass / mbtree=0 / bitrate=3014 / ratetol=1.0 / qcomp=0.60 / qpmin=0 / qpmax=69 / qpstep=4 / cplxblur=20.0 / qblur=0.5 / ip_ratio=1.40 / pb_ratio=1.30 / aq=1:1.00 Язык : Русский По умолчанию : Да Принудительно : Нет Аудио #1 Идентификатор : 2 Формат : AC-3 Формат/Информация : Audio Coding 3 Коммерческое название : Dolby Digital Идентификатор кодека : A_AC3 Продолжительность : 1 ч. 26 мин. Вид битрейта : Постоянный Битрейт : 192 Кбит/сек Канал(-ы) : 2 канала Расположение каналов : L R Частота дискретизации : 48,0 КГц Частота кадров : 31,250 кадров/сек (1536 SPF) Метод сжатия : С потерями Размер потока : 119 Мбайт (5%) Заголовок : Профессиональный (многоголосый закадровый) Язык : Русский По умолчанию : Да Принудительно : Нет Нормализация звука речи : -31 dB dialnorm_Average : -31 dB dialnorm_Minimum : -31 dB dialnorm_Maximum : -31 dB Аудио #2 Идентификатор : 3 Формат : AC-3 Формат/Информация : Audio Coding 3 Коммерческое название : Dolby Digital Идентификатор кодека : A_AC3 Продолжительность : 1 ч. 26 мин. Вид битрейта : Постоянный Битрейт : 192 Кбит/сек Канал(-ы) : 2 канала Расположение каналов : L R Частота дискретизации : 48,0 КГц Частота кадров : 31,250 кадров/сек (1536 SPF) Метод сжатия : С потерями Размер потока : 119 Мбайт (5%) Заголовок : Авторский Сергей Визгунов Язык : Русский По умолчанию : Да Принудительно : Нет Нормализация звука речи : -31 dB dialnorm_Average : -31 dB dialnorm_Minimum : -31 dB dialnorm_Maximum : -31 dB Аудио #3 Идентификатор : 4 Формат : AC-3 Формат/Информация : Audio Coding 3 Коммерческое название : Dolby Digital Идентификатор кодека : A_AC3 Продолжительность : 1 ч. 26 мин. Вид битрейта : Постоянный Битрейт : 192 Кбит/сек Канал(-ы) : 2 канала Расположение каналов : L R Частота дискретизации : 48,0 КГц Частота кадров : 31,250 кадров/сек (1536 SPF) Метод сжатия : С потерями Размер потока : 119 Мбайт (5%) Заголовок : Оригинал Язык : Английский По умолчанию : Да Принудительно : Нет Нормализация звука речи : -31 dB dialnorm_Average : -31 dB dialnorm_Minimum : -31 dB dialnorm_Maximum : -31 dB Текст Идентификатор : 5 Формат : UTF-8 Идентификатор кодека : S_TEXT/UTF8 Идентификатор кодека/Информация : UTF-8 Plain Text Продолжительность : 1 ч. 23 мин. Битрейт : 66 бит/сек Частота кадров : 0,176 кадр/сек Число элементов : 882 Размер потока : 40,5 КиБ (0%) Заголовок : SRT Язык : Русский По умолчанию : Нет Принудительно : Нет Меню 00:00:00.000 : ru-RU:Эпизод 01 00:04:52.800 : ru-RU:Эпизод 02 00:10:36.360 : ru-RU:Эпизод 03 00:13:21.600 : ru-RU:Эпизод 04 00:16:40.560 : ru-RU:Эпизод 05 00:18:54.600 : ru-RU:Эпизод 06 00:21:14.040 : ru-RU:Эпизод 07 00:22:56.040 : ru-RU:Эпизод 08 00:25:30.720 : ru-RU:Эпизод 09 00:28:12.960 : ru-RU:Эпизод 10 00:30:15.120 : ru-RU:Эпизод 11 00:31:06.120 : ru-RU:Эпизод 12 00:31:34.920 : ru-RU:Эпизод 13 00:33:19.200 : ru-RU:Эпизод 14 00:36:21.600 : ru-RU:Эпизод 15 00:38:08.520 : ru-RU:Эпизод 16 00:39:19.440 : ru-RU:Эпизод 17 00:42:45.720 : ru-RU:Эпизод 18 00:43:36.240 : ru-RU:Эпизод 19 00:47:24.480 : ru-RU:Эпизод 20 00:50:15.600 : ru-RU:Эпизод 21 00:52:17.400 : ru-RU:Эпизод 22 00:56:25.320 : ru-RU:Эпизод 23 00:57:48.720 : ru-RU:Эпизод 24 00:59:56.280 : ru-RU:Эпизод 25 01:03:46.920 : ru-RU:Эпизод 26 01:09:37.560 : ru-RU:Эпизод 27 01:11:10.440 : ru-RU:Эпизод 28 01:12:20.160 : ru-RU:Эпизод 29 01:13:45.000 : ru-RU:Эпизод 30 01:16:28.080 : ru-RU:Эпизод 31 01:20:14.520 : ru-RU:Эпизод 32 01:22:01.200 : ru-RU:Эпизод 33
[+] Скриншоты

Всего файлов в раздаче: 1 
Люди мафии.1999.WEB-DLRip720p_[New-team]_by_AVP_Studio.mkv2.18 GB

Похожие раздачи по запросу - Люди
2024-06-11 magnet Последние люди / Les derniers hommes / The Last Men (2023) WEB-DLRip-AVC | L 1К2.70 GB ↑ 49 ↓ 0
2024-06-07 magnet Люди Икс '97 / X-Men '97 [S01] (2024) WEB-DLRip 1080p | D | Локализованная версия | Flarrow Films 18.56 GB ↑ 0 ↓ 0
2024-06-06 magnet Люди мафии / Made Men (1999) DVDRip от New-Team | P 1.11 GB ↑ 0 ↓ 0
2024-06-06 magnet Люди мафии / Made Men (1999) DVDRip-AVC от New-Team | P 1.46 GB ↑ 0 ↓ 0
2024-06-05 magnet Люди мафии / Made Men (1999) WEB-DLRip-AVC от New-Team | P 1.46 GB ↑ 0 ↓ 0
2024-06-03 magnet Люди в океане (1980) HDTVRip от New-Team 1.09 GB ↑ 0 ↓ 0
2024-06-03 magnet Люди в килтах. Дорожные приключения с Сэмом и Грэмом / Men in Kilts: A Roadtrip with Sam and Graham [S01] (2021) WEB-DL 720p | Ozz 9.29 GB ↑ 0 ↓ 0

Кто качает (только для создателя раздачи и модераторов): Локальные пиры отсутствуют

Комментарии


Зарегистрируйтесь чтобы добавить комментарий
Торрент клиент
byTorrent - программа для загрузки торрент-файлов.

Скачать byTorrent.exe (1,5 МБ)

Скачать byTorrent.zip (0,6 МБ)

Поддержи torrent.by
российских рублей
(300 российских рублей это 4$)

Обратная связь rss

End game ©