↑↓torrent.by
Поиск
Логин:  Регистрация
Пароль:

На автомате [01x01-02 из 08] (2024) WEBRip-HEVC 2160p | 4K | HDR

download Скачать торрент-файл   magnet Магнитная ссылка Размер: 5.45 GB Добавлен: 2024-06-05 17:00
Пиры будут получены из сети DHT
Последний сидер был замечен 2024-06-11 11:52
Информация о фильме Оригинальное название: На автомате Год выпуска: 2024 Жанр: Комедия, криминал Выпущено: Россия, Flagman Film Company, Kinch, Марс Медиа Энтертейнмент, Студия Плюс Режиссер: Борис Акопов В ролях: Слава Копейкин, Денис Косиков, Маргарита Галич, Агния Дитковските, Николай Шрайбер, Александра Урсуляк, Артур Бесчастный, Владимир Майзингер, Максим Стоянов, Иван Добронравов О сериале: Каждый день братьев-подростков Ромы и Жени проходит одинаково, на автомате: будильник, учёба, сигаретка за гаражом, склад с оружием... стоп, что? Парни решают, что это шанс быстро срубить лёгкие деньги, ведь надо всего-то продать автоматы в даркнете. Но где оружие, там и опасные люди - тут-то и начинается самое интересное. Очень скоро в истории оказываются замешаны все жители городка: мать-одиночка Светлана, хозяин ломбарда Альберт, тату-мастер Лёля, полицейский Басов, его дочь-блогерка Милена, а также столичные бандиты. Файл Формат: MKV Качество: WEBRip-HEVC 2160p | 4K | HDR Видео: MPEG-H HEVC, ~ 11.6 Мбит/с, 3840x1634, 10 бит Аудио 1: E-AC3, 6 ch, 448 Кбит/с Аудио 2: E-AC3, 6 ch, 448 Кбит/с | 18+ (1 серия) Продолжительность: ~ 00:30:00 Язык: Русский Субтитры: Русские (Full, SDH)
[+] MediaInfo: General Unique ID : 147079493571207128532861597052881959173 (0x6EA67AE7022C3560E152E89D775D7905) Complete name : F:TorrentsNa.avtomate.S01.2160p.WEB-DL.x265.HDRNa.avtomate.S01E01.2160p.WEB-DL.x265.HDR.mkv Format : Matroska Format version : Version 4 File size : 2.55 GiB Duration : 29 min 16 s Overall bit rate : 12.5 Mb/s Frame rate : 25.000 FPS Encoded date : 2024-06-04 21:45:31 UTC Writing application : mkvmerge v82.0 ('I'm The President') 64-bit Writing library : libebml v1.4.5 + libmatroska v1.7.1 Video ID : 1 Format : HEVC Format/Info : High Efficiency Video Coding Format profile : Main 10@L5@High HDR format : SMPTE ST 2086, HDR10 compatible Codec ID : V_MPEGH/ISO/HEVC Duration : 29 min 16 s Bit rate : 11.6 Mb/s Width : 3 840 pixels Height : 1 634 pixels Display aspect ratio : 2.35:1 Frame rate mode : Constant Frame rate : 25.000 FPS Color space : YUV Chroma subsampling : 4:2:0 Bit depth : 10 bits Bits/(Pixel*Frame) : 0.074 Stream size : 2.37 GiB (93%) Writing library : x265 3.5: 10bit Encoding settings : cpuid=1111039 / frame-threads=5 / wpp / no-pmode / no-pme / no-psnr / no-ssim / log-level=2 / input-csp=1 / input-res=3840x1634 / interlace=0 / total-frames=0 / level-idc=50 / high-tier=1 / uhd-bd=0 / ref=2 / no-allow-non-conformance / repeat-headers / annexb / no-aud / hrd / info / hash=0 / no-temporal-layers / open-gop / min-keyint=1 / keyint=100 / gop-lookahead=0 / bframes=4 / b-adapt=2 / b-pyramid / bframe-bias=0 / rc-lookahead=25 / lookahead-slices=4 / scenecut=40 / hist-scenecut=0 / radl=0 / no-splice / no-intra-refresh / ctu=64 / min-cu-size=8 / rect / no-amp / max-tu-size=32 / tu-inter-depth=1 / tu-intra-depth=1 / limit-tu=0 / rdoq-level=2 / dynamic-rd=0.00 / no-ssim-rd / signhide / no-tskip / nr-intra=0 / nr-inter=0 / no-constrained-intra / strong-intra-smoothing / max-merge=3 / limit-refs=3 / limit-modes / me=3 / subme=3 / merange=57 / temporal-mvp / no-frame-dup / no-hme / weightp / no-weightb / no-analyze-src-pics / deblock=0:0 / sao / no-sao-non-deblock / rd=4 / selective-sao=4 / no-early-skip / rskip / no-fast-intra / no-tskip-fast / no-cu-lossless / no-b-intra / no-splitrd-skip / rdpenalty=0 / psy-rd=2.00 / psy-rdoq=1.00 / no-rd-refine / no-lossless / cbqpoffs=0 / crqpoffs=0 / rc=abr / bitrate=11600 / qcomp=0.60 / qpstep=4 / stats-write=0 / stats-read=2 / cplxblur=20.0 / qblur=0.5 / vbv-maxrate=17400 / vbv-bufsize=46400 / vbv-init=0.8 / min-vbv-fullness=50.0 / max-vbv-fullness=80.0 / ipratio=1.40 / pbratio=1.30 / aq-mode=2 / aq-strength=1.00 / cutree / zone-count=0 / no-strict-cbr / qg-size=32 / no-rc-grain / qpmax=69 / qpmin=0 / no-const-vbv / sar=1 / overscan=0 / videoformat=5 / range=0 / colorprim=9 / transfer=16 / colormatrix=9 / chromaloc=0 / display-window=0 / master-display=G(8500,39850)B(6550,2300)R(35400,14600)WP(15635,16450)L(10000000,1) / cll=996,203 / min-luma=0 / max-luma=1023 / log2-max-poc-lsb=8 / vui-timing-info / vui-hrd-info / slices=1 / no-opt-qp-pps / no-opt-ref-list-length-pps / no-multi-pass-opt-rps / scenecut-bias=0.05 / hist-threshold=0.03 / no-opt-cu-delta-qp / no-aq-motion / hdr10 / hdr10-opt / no-dhdr10-opt / no-idr-recovery-sei / analysis-reuse-level=0 / analysis-save-reuse-level=0 / analysis-load-reuse-level=0 / scale-factor=0 / refine-intra=0 / refine-inter=0 / refine-mv=1 / refine-ctu-distortion=0 / no-limit-sao / ctu-info=0 / no-lowpass-dct / refine-analysis-type=0 / copy-pic=1 / max-ausize-factor=1.0 / no-dynamic-refine / no-single-sei / no-hevc-aq / no-svt / no-field / qp-adaptation-range=1.00 / scenecut-aware-qp=0conformance-window-offsets / right=0 / bottom=0 / decoder-max-rate=0 / no-vbv-live-multi-pass Language : English Default : Yes Forced : No Color range : Limited Color primaries : BT.2020 Transfer characteristics : PQ Matrix coefficients : BT.2020 non-constant Mastering display color pri : BT.2020 Mastering display luminance : min: 0.0001 cd/m2, max: 1000 cd/m2 Maximum Content Light Level : 996 cd/m2 Maximum Frame-Average Light : 203 cd/m2 Audio #1 ID : 2 Format : E-AC-3 Format/Info : Enhanced AC-3 Commercial name : Dolby Digital Plus Codec ID : A_EAC3 Duration : 29 min 16 s Bit rate mode : Constant Bit rate : 448 kb/s Channel(s) : 6 channels Channel layout : L R C LFE Ls Rs Sampling rate : 48.0 kHz Frame rate : 31.250 FPS (1536 SPF) Bit depth : 32 bits Compression mode : Lossy Stream size : 93.8 MiB (4%) Language : Russian Service kind : Complete Main Default : Yes Forced : No Audio #2 ID : 3 Format : E-AC-3 Format/Info : Enhanced AC-3 Commercial name : Dolby Digital Plus Codec ID : A_EAC3 Duration : 29 min 16 s Bit rate mode : Constant Bit rate : 448 kb/s Channel(s) : 6 channels Channel layout : L R C LFE Ls Rs Sampling rate : 48.0 kHz Frame rate : 31.250 FPS (1536 SPF) Bit depth : 32 bits Compression mode : Lossy Stream size : 93.8 MiB (4%) Title : 18+ Language : Russian Service kind : Complete Main Default : No Forced : No Text ID : 4 Format : UTF-8 Codec ID : S_TEXT/UTF8 Codec ID/Info : UTF-8 Plain Text Duration : 28 min 55 s Bit rate : 103 b/s Frame rate : 0.278 FPS Count of elements : 482 Stream size : 21.9 KiB (0%) Title : SDH Language : Russian Default : No Forced : No
[+] Скриншоты

Всего файлов в раздаче: 2 
[NOOBDL]Na.avtomate.S01E01.2160p.WEB-DL.x265.HDR.mkv2.55 GB
[NOOBDL]Na.avtomate.S01E02.2160p.WEB-DL.x265.HDR.mkv2.89 GB

Похожие раздачи по запросу - автомате
2024-06-13 magnet На автомате [01х01-03 из 08] (2024) WEB-DLRip-AVC от Files-x 1.48 GB ↑ 0 ↓ 0
2024-06-13 magnet На автомате [01x01-03 из 08] (2024) WEB-DL 720p от ExKinoRay 2.43 GB ↑ 0 ↓ 0
2024-06-13 magnet На автомате [01x01-03 из 08] (2024) WEBRip 1080p от ExKinoRay 3.01 GB ↑ 0 ↓ 0
2024-06-12 magnet На автомате [01x01-02 из 08] (2024) WEBRip-HEVC 2160p | 4K | SDR 7.49 GB ↑ 0 ↓ 0
2024-06-12 magnet На автомате [01x01-03 из 08] (2024) WEBRip-HEVC 1440p | 2K | SDR 5.07 GB ↑ 0 ↓ 0
2024-06-12 magnet На автомате [01x01-03 из 08] (2024) WEBRip 1080p 3.81 GB ↑ 0 ↓ 0
2024-06-12 magnet На автомате [01x01-03 из 08] (2024) WEBRip-HEVC 2160p | 4K | HDR 8.24 GB ↑ 0 ↓ 0

Кто качает (только для создателя раздачи и модераторов): Локальные пиры отсутствуют

Комментарии


Зарегистрируйтесь чтобы добавить комментарий
Торрент клиент
byTorrent - программа для загрузки торрент-файлов.

Скачать byTorrent.exe (1,5 МБ)

Скачать byTorrent.zip (0,6 МБ)

Поддержи torrent.by
российских рублей
(300 российских рублей это 4$)

Обратная связь rss

End game ©