↑↓torrent.by
Поиск
Логин:  Регистрация
Пароль:

На автомате [01x01-02 из 08] (2024) WEBRip-HEVC 1440p | 2K | SDR

download Скачать торрент-файл   magnet Магнитная ссылка Размер: 3.09 GB Добавлен: 2024-06-05 17:00
Пиры будут получены из сети DHT
Последний сидер был замечен 2024-06-05 17:00
Информация о фильме Оригинальное название: На автомате Год выпуска: 2024 Жанр: Комедия, криминал Выпущено: Россия, Flagman Film Company, Kinch, Марс Медиа Энтертейнмент, Студия Плюс Режиссер: Борис Акопов В ролях: Слава Копейкин, Денис Косиков, Маргарита Галич, Агния Дитковските, Николай Шрайбер, Александра Урсуляк, Артур Бесчастный, Владимир Майзингер, Максим Стоянов, Иван Добронравов О сериале: Каждый день братьев-подростков Ромы и Жени проходит одинаково, на автомате: будильник, учёба, сигаретка за гаражом, склад с оружием... стоп, что? Парни решают, что это шанс быстро срубить лёгкие деньги, ведь надо всего-то продать автоматы в даркнете. Но где оружие, там и опасные люди - тут-то и начинается самое интересное. Очень скоро в истории оказываются замешаны все жители городка: мать-одиночка Светлана, хозяин ломбарда Альберт, тату-мастер Лёля, полицейский Басов, его дочь-блогерка Милена, а также столичные бандиты. Файл Формат: MKV Качество: WEBRip-HEVC 1440p | 2K | SDR Видео: MPEG-H HEVC, ~ 4200 Кбит/с, 2560x1088 Аудио 1: E-AC3, 6 ch, 448 Кбит/с Аудио 2: E-AC3, 6 ch, 448 Кбит/с | 18+ (1 серия) Продолжительность: ~ 00:30:00 Язык: Русский Субтитры: Русские (Full, SDH)
[+] MediaInfo: General Unique ID : 47783081829327334348775877979911428561 (0x23F2AFD2FA666E3CEDFB84B1A55B19D1) Complete name : F:TorrentsNa.avtomate.S01.1440p.WEB-DL.x265Na.avtomate.S01E01.1440p.WEB-DL.x265.mkv Format : Matroska Format version : Version 4 File size : 1.04 GiB Duration : 29 min 16 s Overall bit rate : 5 106 kb/s Frame rate : 25.000 FPS Encoded date : 2024-06-05 02:58:24 UTC Writing application : mkvmerge v82.0 ('I'm The President') 64-bit Writing library : libebml v1.4.5 + libmatroska v1.7.1 Video ID : 1 Format : HEVC Format/Info : High Efficiency Video Coding Format profile : Main@L5@High Codec ID : V_MPEGH/ISO/HEVC Duration : 29 min 16 s Bit rate : 4 208 kb/s Width : 2 560 pixels Height : 1 088 pixels Display aspect ratio : 2.35:1 Frame rate mode : Constant Frame rate : 25.000 FPS Color space : YUV Chroma subsampling : 4:2:0 Bit depth : 8 bits Bits/(Pixel*Frame) : 0.060 Stream size : 881 MiB (82%) Writing library : x265 3.5: 8bit+10bit Encoding settings : cpuid=1111039 / frame-threads=5 / wpp / no-pmode / no-pme / no-psnr / no-ssim / log-level=2 / input-csp=1 / input-res=2560x1088 / interlace=0 / total-frames=0 / level-idc=50 / high-tier=1 / uhd-bd=0 / ref=2 / no-allow-non-conformance / no-repeat-headers / annexb / no-aud / no-hrd / info / hash=0 / no-temporal-layers / open-gop / min-keyint=1 / keyint=100 / gop-lookahead=0 / bframes=4 / b-adapt=2 / b-pyramid / bframe-bias=0 / rc-lookahead=100 / lookahead-slices=4 / scenecut=40 / hist-scenecut=0 / radl=0 / no-splice / no-intra-refresh / ctu=64 / min-cu-size=8 / rect / no-amp / max-tu-size=32 / tu-inter-depth=1 / tu-intra-depth=1 / limit-tu=0 / rdoq-level=2 / dynamic-rd=0.00 / no-ssim-rd / signhide / no-tskip / nr-intra=0 / nr-inter=0 / no-constrained-intra / strong-intra-smoothing / max-merge=3 / limit-refs=3 / limit-modes / me=3 / subme=3 / merange=57 / temporal-mvp / no-frame-dup / no-hme / weightp / no-weightb / no-analyze-src-pics / deblock=0:0 / sao / no-sao-non-deblock / rd=4 / selective-sao=4 / no-early-skip / rskip / no-fast-intra / no-tskip-fast / no-cu-lossless / no-b-intra / no-splitrd-skip / rdpenalty=0 / psy-rd=2.00 / psy-rdoq=1.00 / no-rd-refine / no-lossless / cbqpoffs=0 / crqpoffs=0 / rc=crf / crf=16.0 / qcomp=0.60 / qpstep=4 / stats-write=0 / stats-read=0 / vbv-maxrate=100000 / vbv-bufsize=100000 / vbv-init=0.9 / min-vbv-fullness=50.0 / max-vbv-fullness=80.0 / crf-max=0.0 / crf-min=0.0 / ipratio=1.40 / pbratio=1.30 / aq-mode=2 / aq-strength=1.00 / cutree / zone-count=0 / no-strict-cbr / qg-size=32 / no-rc-grain / qpmax=69 / qpmin=0 / no-const-vbv / sar=1 / overscan=0 / videoformat=5 / range=0 / colorprim=2 / transfer=2 / colormatrix=1 / chromaloc=0 / display-window=0 / cll=0,0 / min-luma=0 / max-luma=255 / log2-max-poc-lsb=8 / vui-timing-info / vui-hrd-info / slices=1 / no-opt-qp-pps / no-opt-ref-list-length-pps / no-multi-pass-opt-rps / scenecut-bias=0.05 / hist-threshold=0.03 / no-opt-cu-delta-qp / no-aq-motion / no-hdr10 / no-hdr10-opt / no-dhdr10-opt / no-idr-recovery-sei / analysis-reuse-level=0 / analysis-save-reuse-level=0 / analysis-load-reuse-level=0 / scale-factor=0 / refine-intra=0 / refine-inter=0 / refine-mv=1 / refine-ctu-distortion=0 / no-limit-sao / ctu-info=0 / no-lowpass-dct / refine-analysis-type=0 / copy-pic=1 / max-ausize-factor=1.0 / no-dynamic-refine / no-single-sei / no-hevc-aq / no-svt / no-field / qp-adaptation-range=1.00 / scenecut-aware-qp=0conformance-window-offsets / right=0 / bottom=0 / decoder-max-rate=0 / no-vbv-live-multi-pass Language : English Default : Yes Forced : No Color range : Limited Matrix coefficients : BT.709 Audio #1 ID : 2 Format : E-AC-3 Format/Info : Enhanced AC-3 Commercial name : Dolby Digital Plus Codec ID : A_EAC3 Duration : 29 min 16 s Bit rate mode : Constant Bit rate : 448 kb/s Channel(s) : 6 channels Channel layout : L R C LFE Ls Rs Sampling rate : 48.0 kHz Frame rate : 31.250 FPS (1536 SPF) Bit depth : 32 bits Compression mode : Lossy Stream size : 93.8 MiB (9%) Language : Russian Service kind : Complete Main Default : Yes Forced : No Audio #2 ID : 3 Format : E-AC-3 Format/Info : Enhanced AC-3 Commercial name : Dolby Digital Plus Codec ID : A_EAC3 Duration : 29 min 16 s Bit rate mode : Constant Bit rate : 448 kb/s Channel(s) : 6 channels Channel layout : L R C LFE Ls Rs Sampling rate : 48.0 kHz Frame rate : 31.250 FPS (1536 SPF) Bit depth : 32 bits Compression mode : Lossy Stream size : 93.8 MiB (9%) Title : 18+ Language : Russian Service kind : Complete Main Default : No Forced : No Text #1 ID : 4 Format : UTF-8 Codec ID : S_TEXT/UTF8 Codec ID/Info : UTF-8 Plain Text Duration : 28 min 20 s Bit rate : 86 b/s Frame rate : 0.249 FPS Count of elements : 424 Stream size : 18.0 KiB (0%) Language : Russian Default : No Forced : No Text #2 ID : 5 Format : UTF-8 Codec ID : S_TEXT/UTF8 Codec ID/Info : UTF-8 Plain Text Duration : 28 min 55 s Bit rate : 103 b/s Frame rate : 0.278 FPS Count of elements : 482 Stream size : 21.9 KiB (0%) Title : SDH Language : Russian Default : No Forced : No
[+] Скриншоты

Всего файлов в раздаче: 2 
[NOOBDL]Na.avtomate.S01E01.1440p.WEB-DL.x265.mkv1.04 GB
[NOOBDL]Na.avtomate.S01E02.1440p.WEB-DL.x265.mkv2.05 GB

Похожие раздачи по запросу - автомате
2024-06-13 magnet На автомате [01х01-03 из 08] (2024) WEB-DLRip-AVC от Files-x 1.48 GB ↑ 0 ↓ 0
2024-06-13 magnet На автомате [01x01-03 из 08] (2024) WEB-DL 720p от ExKinoRay 2.43 GB ↑ 0 ↓ 0
2024-06-13 magnet На автомате [01x01-03 из 08] (2024) WEBRip 1080p от ExKinoRay 3.01 GB ↑ 0 ↓ 0
2024-06-12 magnet На автомате [01x01-02 из 08] (2024) WEBRip-HEVC 2160p | 4K | SDR 7.49 GB ↑ 0 ↓ 0
2024-06-12 magnet На автомате [01x01-03 из 08] (2024) WEBRip-HEVC 1440p | 2K | SDR 5.07 GB ↑ 0 ↓ 0
2024-06-12 magnet На автомате [01x01-03 из 08] (2024) WEBRip 1080p 3.81 GB ↑ 0 ↓ 0
2024-06-12 magnet На автомате [01x01-03 из 08] (2024) WEBRip-HEVC 2160p | 4K | HDR 8.24 GB ↑ 0 ↓ 0

Комментарии


Зарегистрируйтесь чтобы добавить комментарий
Торрент клиент
byTorrent - программа для загрузки торрент-файлов.

Скачать byTorrent.exe (1,5 МБ)

Скачать byTorrent.zip (0,6 МБ)

Поддержи torrent.by
российских рублей
(300 российских рублей это 4$)

Обратная связь rss

End game ©