↑↓torrent.by
Поиск
Логин:  Регистрация
Пароль:

Напролом / The Hard Way (1991) BDRip 720p от New-Team | D, P, A

download Скачать торрент-файл   magnet Магнитная ссылка Размер: 3.65 GB Добавлен: 2024-06-06 05:00
Пиры будут получены из сети DHT
Последний сидер был замечен 2024-06-10 11:23
Страна: США Производство: The Badham-Cohen Group, Universal Pictures Жанр: боевик, комедия, криминал Год выпуска: 1991 Продолжительность: 01:50:44 Перевод: Профессиональный (дублированный), Профессиональный (многоголосый закадровый) 1 Канал, Неоклассика, ОРТ, СТС, Авторский Горчаков, Дохалов Оригинальная аудиодорожка: английский Cубтитры: русский Режиссер: Джон Бэдэм / John Badham В ролях: Майкл Дж. Фокс, Джеймс Вудс, Стивен Лэнг, Аннабелла Шиорра, Джон Каподиче, Луис Гузман, LL Кул Джей, Мэри Мара, Делрой Линдо, Конрад Робертс... Подробнее об актерах Описание: Ник Лэнг — знаменитая голливудская звезда. У Ника есть лишь одна мечта: расстаться со своим имиджем «славного парня» и сыграть настоящего «крутого» героя. И тут, как раз кстати, возникает возможность исполнить роль отважного детектива. Чтобы как можно лучше узнать о своем новом персонаже, Лэнг отправляется в Нью-Йорк, где знакомится с бывалым сыщиком Джоном Моссом, который должен помочь ему освоить полицейские приемы. Странная парочка отправляется на поиски самого настоящего серийного убийцы, терроризирующего весь город… Исходник: BDRemux 1080p Тип релиза: BDRip 720p Контейнер: MKV Видео: 1280x544 (2,35:1), 23,976 кадра/сек, x264 core 164 r3172 ~ 3 183 кбит/сек, 0.191 бит/пиксель Аудио: 48 кГц, Dolby Digital AC3 2.0, 192 кбит/сек DUB Аудио: 48 кГц, Dolby Digital AC3 2.0, 192 кбит/сек MVO 1 Канал Аудио: 48 кГц, Dolby Digital AC3 2.0, 192 кбит/сек MVO Неоклассика Аудио: 48 кГц, Dolby Digital AC3 2.0, 192 кбит/сек MVO ОРТ Аудио: 48 кГц, Dolby Digital AC3 2.0, 192 кбит/сек MVO СТС Аудио: 48 кГц, Dolby Digital AC3 2.0, 192 кбит/сек Горчаков Аудио: 48 кГц, Dolby Digital AC3 2.0, 192 кбит/сек Дохалов Аудио: 48 кГц, Dolby Digital AC3 2.0, 192 кбит/сек английский Субтитры: форсированные, полные SoftSub (srt) Оригинальная навигация по главам: есть Раздача от:
[+] MediaInfo Общее Полное имя : Напролом.1991.BDRip720p__by_AVP_Studio.mkv Формат : Matroska Версия формата : Version 4 Размер файла : 3,65 Гбайт Продолжительность : 1 ч. 50 м. Общий поток : 4 721 Кбит/сек Частота кадров : 23,976 кадра/сек Дата кодирования : 2023-12-14 08:07:21 UTC Программа кодирования : mkvmerge v81.0 ('Milliontown') 64-bit Библиотека кодирования : libebml v1.4.4 + libmatroska v1.7.1 Видео Идентификатор : 1 Формат : AVC Формат/Информация : Advanced Video Codec Профиль формата : High@L4.1 Настройки формата : CABAC / 8 Ref Frames Параметр CABAC формата : Да Параметр RefFrames формата : 8 кадров Идентификатор кодека : V_MPEG4/ISO/AVC Продолжительность : 1 ч. 50 м. Битрейт : 3 183 Кбит/сек Ширина : 1 280 пикселей Высота : 544 пикселя Соотношение сторон : 2,35:1 Режим частоты кадров : Постоянный Частота кадров : 23,976 (24000/1001) кадра/сек Цветовое пространство : YUV Субдискретизация насыщенности : 4:2:0 Битовая глубина : 8 бит Тип развёртки : Прогрессивная Бит/(Пиксели*Кадры) : 0.191 Размер потока : 2,46 Гбайт (67%) Заголовок : Исходник BDRemux Библиотека кодирования : x264 core 164 r3172 c1c9931 Настройки программы : cabac=1 / ref=8 / deblock=1:-3:-3 / analyse=0x3:0x133 / me=umh / subme=10 / psy=1 / psy_rd=1.00:0.00 / mixed_ref=1 / me_range=32 / chroma_me=1 / trellis=2 / 8x8dct=1 / cqm=0 / deadzone=21,11 / fast_pskip=1 / chroma_qp_offset=-2 / threads=6 / lookahead_threads=1 / sliced_threads=0 / nr=0 / decimate=0 / interlaced=0 / bluray_compat=0 / constrained_intra=0 / bframes=8 / b_pyramid=2 / b_adapt=2 / b_bias=0 / direct=3 / weightb=1 / open_gop=0 / weightp=2 / keyint=240 / keyint_min=24 / scenecut=40 / intra_refresh=0 / rc=2pass / mbtree=0 / bitrate=3183 / ratetol=1.0 / qcomp=0.60 / qpmin=0 / qpmax=69 / qpstep=4 / cplxblur=20.0 / qblur=0.5 / ip_ratio=1.40 / pb_ratio=1.30 / aq=1:1.00 Язык : English Default : Да Forced : Нет Аудио #1 Идентификатор : 2 Формат : AC-3 Формат/Информация : Audio Coding 3 Коммерческое название : Dolby Digital Идентификатор кодека : A_AC3 Продолжительность : 1 ч. 50 м. Вид битрейта : Постоянный Битрейт : 192 Кбит/сек Каналы : 2 канала Channel layout : L R Частота : 48,0 КГц Частота кадров : 31,250 кадров/сек (1536 SPF) Метод сжатия : С потерями Размер потока : 152 Мбайт (4%) Заголовок : Профессиональный (дублированный) Язык : Russian Default : Да Forced : Нет Аудио #2 Идентификатор : 3 Формат : AC-3 Формат/Информация : Audio Coding 3 Коммерческое название : Dolby Digital Идентификатор кодека : A_AC3 Продолжительность : 1 ч. 50 м. Вид битрейта : Постоянный Битрейт : 192 Кбит/сек Каналы : 2 канала Channel layout : L R Частота : 48,0 КГц Частота кадров : 31,250 кадров/сек (1536 SPF) Метод сжатия : С потерями Размер потока : 152 Мбайт (4%) Заголовок : Профессиональный (многоголосый закадровый) 1 Канал Язык : Russian Default : Да Forced : Нет Аудио #3 Идентификатор : 4 Формат : AC-3 Формат/Информация : Audio Coding 3 Коммерческое название : Dolby Digital Настройки формата : Dolby Surround Идентификатор кодека : A_AC3 Продолжительность : 1 ч. 50 м. Вид битрейта : Постоянный Битрейт : 192 Кбит/сек Каналы : 2 канала Channel layout : L R Частота : 48,0 КГц Частота кадров : 31,250 кадров/сек (1536 SPF) Метод сжатия : С потерями Размер потока : 152 Мбайт (4%) Заголовок : Профессиональный (многоголосый закадровый) Неоклассика Язык : Russian Default : Да Forced : Нет Аудио #4 Идентификатор : 5 Формат : AC-3 Формат/Информация : Audio Coding 3 Коммерческое название : Dolby Digital Идентификатор кодека : A_AC3 Продолжительность : 1 ч. 50 м. Вид битрейта : Постоянный Битрейт : 192 Кбит/сек Каналы : 2 канала Channel layout : L R Частота : 48,0 КГц Частота кадров : 31,250 кадров/сек (1536 SPF) Метод сжатия : С потерями Размер потока : 152 Мбайт (4%) Заголовок : Профессиональный (многоголосый закадровый) ОРТ Язык : Russian Default : Да Forced : Нет Аудио #5 Идентификатор : 6 Формат : AC-3 Формат/Информация : Audio Coding 3 Коммерческое название : Dolby Digital Идентификатор кодека : A_AC3 Продолжительность : 1 ч. 50 м. Вид битрейта : Постоянный Битрейт : 192 Кбит/сек Каналы : 2 канала Channel layout : L R Частота : 48,0 КГц Частота кадров : 31,250 кадров/сек (1536 SPF) Метод сжатия : С потерями Размер потока : 152 Мбайт (4%) Заголовок : Профессиональный (многоголосый закадровый) СТС Язык : Russian Default : Да Forced : Нет Аудио #6 Идентификатор : 7 Формат : AC-3 Формат/Информация : Audio Coding 3 Коммерческое название : Dolby Digital Идентификатор кодека : A_AC3 Продолжительность : 1 ч. 50 м. Вид битрейта : Постоянный Битрейт : 192 Кбит/сек Каналы : 2 канала Channel layout : L R Частота : 48,0 КГц Частота кадров : 31,250 кадров/сек (1536 SPF) Метод сжатия : С потерями Размер потока : 152 Мбайт (4%) Заголовок : Авторский Горчаков Язык : Russian Default : Да Forced : Нет Аудио #7 Идентификатор : 8 Формат : AC-3 Формат/Информация : Audio Coding 3 Коммерческое название : Dolby Digital Идентификатор кодека : A_AC3 Продолжительность : 1 ч. 50 м. Вид битрейта : Постоянный Битрейт : 192 Кбит/сек Каналы : 2 канала Channel layout : L R Частота : 48,0 КГц Частота кадров : 31,250 кадров/сек (1536 SPF) Метод сжатия : С потерями Размер потока : 152 Мбайт (4%) Заголовок : Авторский Дохалов Язык : Russian Default : Да Forced : Нет Аудио #8 Идентификатор : 9 Формат : AC-3 Формат/Информация : Audio Coding 3 Коммерческое название : Dolby Digital Идентификатор кодека : A_AC3 Продолжительность : 1 ч. 50 м. Вид битрейта : Постоянный Битрейт : 192 Кбит/сек Каналы : 2 канала Channel layout : L R Частота : 48,0 КГц Частота кадров : 31,250 кадров/сек (1536 SPF) Метод сжатия : С потерями Размер потока : 152 Мбайт (4%) Заголовок : Оригинал Язык : English Default : Да Forced : Нет Текст #1 Идентификатор : 10 Формат : UTF-8 Идентификатор кодека : S_TEXT/UTF8 Идентификатор кодека/Информация : UTF-8 Plain Text Продолжительность : 1 ч. 38 м. Битрейт : 0 бит/сек Частота кадров : 0,004 кадр/сек Count of elements : 22 Размер потока : 728 байт (0%) Заголовок : Forced SRT Язык : Russian Default : Да Forced : Нет Текст #2 Идентификатор : 11 Формат : UTF-8 Идентификатор кодека : S_TEXT/UTF8 Идентификатор кодека/Информация : UTF-8 Plain Text Продолжительность : 1 ч. 49 м. Битрейт : 93 бит/сек Частота кадров : 0,253 кадр/сек Count of elements : 1666 Размер потока : 75,0 Кбайт (0%) Заголовок : SRT Язык : Russian Default : Нет Forced : Нет Меню 00:00:00.000 : en:00:00:00.000 00:11:02.161 : en:00:11:02.161 00:16:26.736 : en:00:16:26.736 00:28:26.496 : en:00:28:26.496 00:39:46.092 : en:00:39:46.092 00:49:03.107 : en:00:49:03.107 00:55:49.054 : en:00:55:49.054 01:05:23.837 : en:01:05:23.837 01:10:38.484 : en:01:10:38.484 01:19:40.693 : en:01:19:40.693 01:25:19.072 : en:01:25:19.072 01:30:45.315 : en:01:30:45.315 01:33:30.772 : en:01:33:30.772 01:38:31.697 : en:01:38:31.697 01:45:44.797 : en:01:45:44.797 01:47:17.014 : en:01:47:17.014
[+] Скриншоты

Всего файлов в раздаче: 1 
Напролом.1991.BDRip720p_[New-team]_by_AVP_Studio.mkv3.65 GB

Кто качает (только для создателя раздачи и модераторов): Локальные пиры отсутствуют

Комментарии


Зарегистрируйтесь чтобы добавить комментарий
Торрент клиент
byTorrent - программа для загрузки торрент-файлов.

Скачать byTorrent.exe (1,5 МБ)

Скачать byTorrent.zip (0,6 МБ)

Поддержи torrent.by
российских рублей
(300 российских рублей это 4$)

Обратная связь rss

End game ©