↑↓torrent.by
Поиск
Логин:  Регистрация
Пароль:

Мэр Кингстауна / Mayor of Kingstown [03x01 из 10] (2024) WEB-DL 1080p | HDRezka Studio, LostFilm

download Скачать торрент-файл   magnet Магнитная ссылка Размер: 3.94 GB Добавлен: 2024-06-06 05:00
Пиры будут получены из сети DHT
Последний сидер был замечен вчера в 18:44
Информация о фильме Название: Мэр Кингстауна Оригинальное название: Mayor of Kingstown Год выхода: 2024 Жанр: триллер, драма, криминал Режиссёр: Бен Ричардсон, Гай Ферленд, Кларк Джонсон В ролях: Кайл Чандлер, Джереми Реннер, Фивен Абера, Хэмиш Аллан-Хедли, Тоби Бамфета, Аманда Баркер, Майкл Бич, Дарлен Кук, Хью Диллон, Николь Галисия, Эйдан Гиллен, Тэйлор Хэндли, Эндрю Ховард, Джеймс Джордан (II), Роб Керклэнд, Брайан Маркинсон, Ниши Мунши, Джо Парро, Михаэль Ревентар, Мандела Ван Пиблз, Дерек Уэбстер, Дайан Уист, Некар Задеган, Тим Пост О фильме: «Мэр Кингстауна» — это криминальная драма от создателя «Йеллоустоуна» Тейлора Шеридана, повествующая о городе, жизнь обитателей которого тесно связана с расположенными в округе тюрьмами. Правят бал здесь находящиеся за решеткой криминальные авторитеты, а те, кто должен следить за выполнением законов, занимаются тем, что подстраивают эти законы под текущие реалии. Сериал фокусируется на людях, которым нечего терять и некуда бежать, тех, чье богатое на мрачные события прошлое раз и навсегда предопределило их безнадежное будущее. Как уже признанный мастер сложных персонажей, через своих антигероев Шеридан придает особую глубину понятиям коррупции, социального неравенства, нелюбви, страданий и безысходности. Исследование мрачных уголков неприкаянной человеческой души, проведенное под свинцовым небом Кингстауна под зловещие фортепианные мотивы и скрежет тюремных решеток, подкрепляется блистательной актерской игрой Джереми Реннера, Кайла Чандлера, Дайан Уист и Эйдана Гиллена. В семи тюрьмах, расположенных в Кингстауне, сидят 20 тысяч человек, чье будущее не сулит ничего хорошего, а настоящее — уныло и безрадостно. Майк (Джереми Реннер) и его брат Митч МакЛаски (Кайл Чандлер) работают в одной из тюрем и описывают свою деятельность как «не дать крысам покинуть клетки, а охранникам — стать крысами». Они же осуществляют связь зэков с миром, который их старательно избегает. Тем временем их мать Мэриам (Дайан Уист), не скрывая на лице отвращения к городу, навсегда запятнавшем фамилию ее семьи, несет бремя материнского инстинкта как измотавшее ее ярмо. Лишенная нормальных эмоциональных связей, она даже не делает вид, что хоть в чем-то готова поддерживать своих сыновей. Перевернутый мир, в котором обитают жители города, живет по своим законам, а сам Кингстаун не так-то легко покинуть, как может показаться со стороны. Особенно когда то в одной, то в другой тюрьме назревает очередной бунт, предотвращать который приходится такому нестабильному и тоже далеко не положительному персонажу, как Майк... Страна: США Студия: Bosque Ranch Productions, MTV Entertainment Studios Продолжительность: ~01:00:00 серия Перевод: Профессиональный (многоголосый закадровый) HDRezka Studio + Профессиональный (многоголосый закадровый) LostFilm Файл Формат: MKV Качество: WEB-DL 1080p Видео: 1920x1080 at 23.976 fps, MPEG-4 AVC, ~9000 kbps avg Аудио#1: Russian: 48 kHz, AC3, 2/0 (L,R) ch, ~192.00 kbps avg |Многоголосый закадровый, HDRezka Studio| Аудио#2: Russian: 48 kHz, AC3, 2/0 (L,R) ch, ~192.00 kbps avg kbps avg |Многоголосый закадровый, HDRezka Studio 18+| Аудио#3: Russian: 48 kHz, AC3, 2/0 (L,R) ch, ~384.00 kbps avg |Многоголосый закадровый, LostFilm| Аудио#4: English: 48 kHz, E-AC3, 3/2 (L,C,R,l,r) + LFE ch, ~640.00 kbps avg Субтитры: Русские (HDRezka Studio), Английские (SDH) Реклама отсутствует Без заставки и логотипа Релиз: Wentworth_Miller
[+] Список серий01. Сердце солдата 02. Guts - LOSTFILM - 11 июня
[+] MediaInfoОбщее Уникальный идентификатор : 236639091383309582640251310435039200627 (0xB20707FD6DD5E9E4A73D4F6A1F9C4573) Полное имя : Mayor.of.Kingstown.S03E01.1080p.WEB-DL.RGzsRutracker.mkv Формат : Matroska Версия формата : Version 4 Размер файла : 3,94 Гбайт Продолжительность : 54 мин. 27 с. Общий битрейт : 10,4 Мбит/сек Частота кадров : 23,976 кадра/сек Название фильма : Mayor of Kingstown 03x01 - Release by Wentworth_Miller Дата кодирования : 2024-06-05 20:01:58 UTC Программа кодирования : mkvmerge v84.0 ('Sleeper') 64-bit Библиотека кодирования : libebml v1.4.5 + libmatroska v1.7.1 Обложка : Yes Attachments : cover5.png Видео Идентификатор : 1 Формат : AVC Формат/Информация : Advanced Video Codec Профиль формата : High@L4 Настройки формата : CABAC / 4 Ref Frames Параметр CABAC формата : Да Параметр RefFrames формата : 4 кадра Идентификатор кодека : V_MPEG4/ISO/AVC Продолжительность : 54 мин. 27 с. Вид битрейта : Постоянный Битрейт : 8 958 Кбит/сек Номинальный битрейт : 10 000 Кбит/сек Ширина : 1 920 пикселей Высота : 1 080 пикселей Соотношение сторон дисплея : 16:9 Режим частоты кадров : Постоянный Частота кадров : 23,976 (24000/1001) кадра/сек Цветовое пространство : YUV Цветовая субдискретизация : 4:2:0 Битовая глубина : 8 бит Тип развёртки : Прогрессивная Бит/(Пиксели*Кадры) : 0.180 Размер потока : 3,41 Гбайт (86%) Заголовок : Soldier's Heart Язык : Английский По умолчанию : Да Принудительно : Нет Цветовой диапазон : Limited Основные цвета : BT.709 Характеристики трансфера : BT.709 Коэффициенты матрицы : BT.709 Аудио #1 Идентификатор : 2 Формат : AC-3 Формат/Информация : Audio Coding 3 Коммерческое название : Dolby Digital Идентификатор кодека : A_AC3 Продолжительность : 54 мин. 27 с. Вид битрейта : Постоянный Битрейт : 192 Кбит/сек Канал(-ы) : 2 канала Расположение каналов : L R Частота дискретизации : 48,0 КГц Частота кадров : 31,250 кадров/сек (1536 SPF) Метод сжатия : С потерями Размер потока : 74,8 Мбайт (2%) Заголовок : HDRezka Studio Язык : Русский Вид сервиса : Complete Main По умолчанию : Да Принудительно : Нет Нормализация звука речи : -27 dB compr : -0.28 dB mixlevel : 281 dB roomtyp : 3 ltrtcmixlev : -3.0 dB ltrtsurmixlev : -3.0 dB lorocmixlev : -3.0 dB lorosurmixlev : -3.0 dB dialnorm_Average : -27 dB dialnorm_Minimum : -27 dB dialnorm_Maximum : -27 dB Аудио #2 Идентификатор : 3 Формат : AC-3 Формат/Информация : Audio Coding 3 Коммерческое название : Dolby Digital Идентификатор кодека : A_AC3 Продолжительность : 54 мин. 27 с. Вид битрейта : Постоянный Битрейт : 192 Кбит/сек Канал(-ы) : 2 канала Расположение каналов : L R Частота дискретизации : 48,0 КГц Частота кадров : 31,250 кадров/сек (1536 SPF) Метод сжатия : С потерями Размер потока : 74,8 Мбайт (2%) Заголовок : HDRezka Studio 18+ Язык : Русский Вид сервиса : Complete Main По умолчанию : Нет Принудительно : Нет Нормализация звука речи : -27 dB compr : -0.28 dB mixlevel : 281 dB roomtyp : 3 ltrtcmixlev : -3.0 dB ltrtsurmixlev : -3.0 dB lorocmixlev : -3.0 dB lorosurmixlev : -3.0 dB dialnorm_Average : -27 dB dialnorm_Minimum : -27 dB dialnorm_Maximum : -27 dB Аудио #3 Идентификатор : 4 Формат : AC-3 Формат/Информация : Audio Coding 3 Коммерческое название : Dolby Digital Идентификатор кодека : A_AC3 Продолжительность : 54 мин. 27 с. Вид битрейта : Постоянный Битрейт : 384 Кбит/сек Канал(-ы) : 2 канала Расположение каналов : L R Частота дискретизации : 48,0 КГц Частота кадров : 31,250 кадров/сек (1536 SPF) Метод сжатия : С потерями Размер потока : 150 Мбайт (4%) Заголовок : LostFilm Язык : Русский Вид сервиса : Complete Main По умолчанию : Нет Принудительно : Нет Нормализация звука речи : -31 dB dialnorm_Average : -31 dB dialnorm_Minimum : -31 dB dialnorm_Maximum : -31 dB Аудио #4 Идентификатор : 5 Формат : E-AC-3 Формат/Информация : Enhanced AC-3 Коммерческое название : Dolby Digital Plus Идентификатор кодека : A_EAC3 Продолжительность : 54 мин. 27 с. Вид битрейта : Постоянный Битрейт : 640 Кбит/сек Канал(-ы) : 6 каналов Расположение каналов : L R C LFE Ls Rs Частота дискретизации : 48,0 КГц Частота кадров : 31,250 кадров/сек (1536 SPF) Метод сжатия : С потерями Размер потока : 249 Мбайт (6%) Язык : Английский Вид сервиса : Complete Main По умолчанию : Нет Принудительно : Нет Нормализация звука речи : -31 dB compr : -0.28 dB dialnorm_Average : -31 dB dialnorm_Minimum : -31 dB dialnorm_Maximum : -31 dB Текст #1 Идентификатор : 6 Формат : UTF-8 Идентификатор кодека : S_TEXT/UTF8 Идентификатор кодека/Информация : UTF-8 Plain Text Продолжительность : 53 мин. 20 с. Битрейт : 82 бит/сек Частота кадров : 0,223 кадр/сек Число элементов : 713 Размер потока : 32,2 КиБ (0%) Заголовок : HDRezka Studio Язык : Русский По умолчанию : Нет Принудительно : Нет Текст #2 Идентификатор : 7 Формат : UTF-8 Идентификатор кодека : S_TEXT/UTF8 Идентификатор кодека/Информация : UTF-8 Plain Text Продолжительность : 53 мин. 13 с. Битрейт : 71 бит/сек Частота кадров : 0,313 кадр/сек Число элементов : 1000 Размер потока : 27,9 КиБ (0%) Заголовок : SDH Язык : Английский По умолчанию : Нет Принудительно : Нет
[+] Скриншоты

Всего файлов в раздаче: 1 
Mayor.of.Kingstown.S03E01.1080p.WEB-DL.RGzsRutracker.mkv3.94 GB

Похожие раздачи по запросу - Мэр
2024-06-12 magnet Мэр Кингстауна / Mayor of Kingstown [03x01-02 из 10] (2024) WEB-DL 1080p | HDRezka Studio, LostFilm, TVShows 7.54 GB ↑ 0 ↓ 0
2024-01-05 magnet Мэр Кингстауна / Mayor of Kingstown [S01-02] (2021-2023) WEB-DLRip | LostFilm 2К11.13 GB ↑ 0 ↓ 0

Кто качает (только для создателя раздачи и модераторов): Локальные пиры отсутствуют

Комментарии


Зарегистрируйтесь чтобы добавить комментарий
Торрент клиент
byTorrent - программа для загрузки торрент-файлов.

Скачать byTorrent.exe (1,5 МБ)

Скачать byTorrent.zip (0,6 МБ)

Поддержи torrent.by
российских рублей
(300 российских рублей это 4$)

Обратная связь rss

End game ©