↑↓torrent.by
Поиск
Логин:  Регистрация
Пароль:

Люди мафии / Made Men (1999) DVDRip от New-Team | P

download Скачать торрент-файл   magnet Магнитная ссылка Размер: 1.11 GB Добавлен: 2024-06-06 11:00
Пиры будут получены из сети DHT
Последний сидер был замечен 2024-06-07 19:50
Страна: США Производство: Decade Pictures, Made Men Productions Inc. Жанр: боевик, триллер, комедия Год выпуска: 1999 Продолжительность: 01:26:54 Перевод: Профессиональный (многоголосый, закадровый) Оригинальная аудиодорожка: нет Cубтитры: нет Режиссер: Луис Морно / Louis Morneau В ролях: Джеймс Белуши, Тимоти Далтон, Джейми Харрис, Дэвид О'Доннелл, Карлтон Уилборн, Ванесса Эйнджел, Стив Рэйлсбэк, Майкл Бич... Подробнее об актерах Описание: Билл Вануччи, включенный в программу защиты свидетелей, в страшной спешке подпиливает пули, готовит оружие и отправляет свою жену Дебру в Лос-Анджелес. Приходят неприятные люди с оружием и собираются пытать Билла, упрекая его в том, что он предал Шкиппера. Билл говорит, что он просто украл у него деньги. Ребята хотят знать, где спрятаны деньги Шкиппера, и под шум сверла Билл обещает показать, где деньги зарыты. Уже в машине Билл обещает всем по четыре миллиона из 12 украденных, а на заправке к бандитам подходит Декс, местный шериф города Хармони, интересующийся, откуда появились «неместные». Шериф сообщает о них по рации своему напарнику Корли и просит последить за машиной. Билл «разводит» недалеких бандитов, расписывая, как на бензоколонке они хотели убить отсутствующих, и, воспользовавшись дракой, бежит. Тем временем помощник шерифа Корли просит предъявить права у оставшегося у машины бандита и получает несколько пуль в грудь. Билл заходит в какой-то большойамбар и нарывается на местных крутых ребят, устроивших там завод по переработке наркотиков под руководством колоритнейшего Кайла. Билл предлагает Кайлу 12 миллионов. Начинаетсяя крутая перестрелка. Итак, подведем итоги: Билл, прикарманивший 12 «лимонов» у босса чикагской мафии, должен спасти свою шкуру и, желательно, деньги от посланных за ним бандитов, местных наркодельцов и шерифа, у которого убили любимого помощника… Исходник: DVD5 R5 Тип релиза: DVDRip Контейнер: AVI Видео: 704x496 (1,419:1), 25,000 кадров/сек, XviD 73 ~ 1620 кбит/се, 0.186 бит/пиксель Аудио: 48 кГц, Dolby Digital AC3 2.0, 192 кбит/сек Раздача от:
[+] MediaInfo Общее Полное имя : Люди мафии.1999.DVDRip__by_AVP_Studio.avi Формат : AVI Формат/Информация : Audio Video Interleave Настройки формата : BitmapInfoHeader / WaveFormatEx Размер файла : 1,11 Гбайт Продолжительность : 1 ч. 26 мин. Общий битрейт : 1 823 Кбит/сек Частота кадров : 25,000 кадров/сек Видео Идентификатор : 0 Формат : MPEG-4 Visual Профиль формата : Advanced Simple@L5 Настройки формата : BVOP1 / Custom Matrix Параметр BVOP формата : 1 Параметр QPel формата : Нет Параметр GMC формата : Без точки перехода Параметр Matrix формата : Выборочная Идентификатор кодека : XVID Идентификатор кодека/Подсказка : XviD Продолжительность : 1 ч. 26 мин. Битрейт : 1 620 Кбит/сек Ширина : 704 пикселя Высота : 496 пикселей Соотношение сторон дисплея : 1,419 Частота кадров : 25,000 кадров/сек Цветовое пространство : YUV Цветовая субдискретизация : 4:2:0 Битовая глубина : 8 бит Тип развёртки : Прогрессивная Метод сжатия : С потерями Бит/(Пиксели*Кадры) : 0.186 Размер потока : 1 007 Мбайт (89%) Библиотека кодирования : XviD 73 Аудио Идентификатор : 1 Формат : AC-3 Формат/Информация : Audio Coding 3 Коммерческое название : Dolby Digital Идентификатор кодека : 2000 Продолжительность : 1 ч. 26 мин. Вид битрейта : Постоянный Битрейт : 192 Кбит/сек Канал(-ы) : 2 канала Расположение каналов : L R Частота дискретизации : 48,0 КГц Частота кадров : 31,250 кадров/сек (1536 SPF) Метод сжатия : С потерями Размер потока : 119 Мбайт (11%) Выравнивание : Соединение по промежуткам Чередование, продолжительность : 32 мс. (0,80 видеокадр) Нормализация звука речи : -31 dB dialnorm_Average : -31 dB dialnorm_Minimum : -31 dB dialnorm_Maximum : -31 dB
[+] Скриншоты

Всего файлов в раздаче: 1 
Люди мафии.1999.DVDRip_[New-team]_by_AVP_Studio.avi1.11 GB

Похожие раздачи по запросу - Люди
2024-06-11 magnet Последние люди / Les derniers hommes / The Last Men (2023) WEB-DLRip-AVC | L 1К2.70 GB ↑ 56 ↓ 0
2024-06-07 magnet Люди Икс '97 / X-Men '97 [S01] (2024) WEB-DLRip 1080p | D | Локализованная версия | Flarrow Films 18.56 GB ↑ 0 ↓ 1
2024-06-06 magnet Люди мафии / Made Men (1999) DVDRip-AVC от New-Team | P 1.46 GB ↑ 0 ↓ 0
2024-06-05 magnet Люди мафии / Made Men (1999) WEB-DLRip-AVC от New-Team | P 1.46 GB ↑ 0 ↓ 0
2024-06-05 magnet Люди мафии / Made Men (1999) WEB-DLRip 720p от New-Team | P, A 2.18 GB ↑ 0 ↓ 0
2024-06-03 magnet Люди в океане (1980) HDTVRip от New-Team 1.09 GB ↑ 0 ↓ 0
2024-06-03 magnet Люди в килтах. Дорожные приключения с Сэмом и Грэмом / Men in Kilts: A Roadtrip with Sam and Graham [S01] (2021) WEB-DL 720p | Ozz 9.29 GB ↑ 0 ↓ 0

Кто качает (только для создателя раздачи и модераторов): Локальные пиры отсутствуют

Комментарии


Зарегистрируйтесь чтобы добавить комментарий
Торрент клиент
byTorrent - программа для загрузки торрент-файлов.

Скачать byTorrent.exe (1,5 МБ)

Скачать byTorrent.zip (0,6 МБ)

Поддержи torrent.by
российских рублей
(300 российских рублей это 4$)

Обратная связь rss

End game ©