↑↓torrent.by
Поиск
Логин:  Регистрация
Пароль:

Вуду. Шёпот тьмы / Stopmotion (2023) WEB-DL 1080p от New-Team | P | TVShows

download Скачать торрент-файл   magnet Магнитная ссылка Размер: 5.23 GB Добавлен: 2024-06-06 11:00
Пиры будут получены из сети DHT
Последний сидер был замечен 2024-06-08 20:01
Вуду. Шёпот тьмы / Stopmotion Год выпуска: 2023 Выпущено: Великобритания / Blue Light, BFI Жанр: ужасы Режиссер: Роберт Морган / Robert Morgan В ролях: Эшлинг Франчози, Кэолинн Спринголл, Том Йорк, Стелла Гонет, Терика Уилсон-Рид, Бриджитта Рой, Алекс Фриборн, Джеймс Суонтон, Джеймс Харрис, Джаз Хатчинс О фильме: Элла — дочь легенды в мире кукольной анимации. Властная мать страдает от артрита и пытается закончить последний фильм руками дочери, но внезапно её разбивает инсульт. Элла переезжает в другую квартиру, где знакомится с соседской девочкой и по её истории начинает делать собственный фильм. Продолжительность: 01:33:38 Перевод: Профессиональный (многоголосый, закадровый) | TVShows (Thx. SunOfABeach) Субтитры: Русские (forced, full (ViruseProject)), английские (full, SDH) Раздача от: Автор релиза: JNS82. Формат: MKV Качество: WEB-DL 1080p | AMZN Видео: MPEG-4 AVC, (2,40:1), 1920x800, 6974 Кбит/с, 23,976 fps Аудио #1: 48 kHz, AC3 Dolby Digital, 3/2 (L,C,R,l,r) + LFE ch, ~ 384 kbps | RUS | Аудио #2: 48 kHz, E-AC3 Dolby Digital, 3/2 (L,C,R,l,r) + LFE ch, ~ 640 kbps | ENG |
[+] MediaInfoОбщее Уникальный идентификатор : 139986075454492525766948078234073801033 (0x6950566338CD7ABC566347038097A149) Полное имя : D:TorrentsStopmotion.2023.1080p.AMZN_от New-Team.mkv Формат : Matroska Версия формата : Version 4 Размер файла : 5,23 Гбайт Продолжительность : 1 ч. 33 м. Общий поток : 8 000 Кбит/сек Название фильма : Stopmotion.2023.1080p.AMZN_от New-Team Дата кодирования : UTC 2024-06-06 06:26:49 Программа кодирования : mkvmerge v79.0 ('Funeral Pyres') 64-bit Библиотека кодирования : libebml v1.4.4 + libmatroska v1.7.1 Видео Идентификатор : 1 Формат : AVC Формат/Информация : Advanced Video Codec Профиль формата : High@L4 Настройки формата : CABAC / 4 Ref Frames Параметр CABAC формата : Да Параметр RefFrames формата : 4 кадра Идентификатор кодека : V_MPEG4/ISO/AVC Продолжительность : 1 ч. 33 м. Вид битрейта : Постоянный Битрейт : 6 974 Кбит/сек Номинальный битрейт : 10 000 Кбит/сек Ширина : 1 920 пикселей Высота : 800 пикселей Соотношение сторон : 2,40:1 Режим частоты кадров : Постоянный Частота кадров : 23,976 (23976/1000) кадра/сек Частота кадров в оригинале : 23,976 (24000/1001) кадра/сек Цветовое пространство : YUV Субдискретизация насыщенности : 4:2:0 Битовая глубина : 8 бит Тип развёртки : Прогрессивная Бит/(Пиксели*Кадры) : 0.189 Размер потока : 4,56 Гбайт (87%) Язык : English Default : Да Forced : Нет Цветовой диапазон : Limited Основные цвета : BT.709 Характеристики трансфера : BT.709 Коэффициенты матрицы : BT.709 Аудио #1 Идентификатор : 2 Формат : AC-3 Формат/Информация : Audio Coding 3 Коммерческое название : Dolby Digital Идентификатор кодека : A_AC3 Продолжительность : 1 ч. 33 м. Вид битрейта : Постоянный Битрейт : 384 Кбит/сек Каналы : 6 каналов Channel layout : L R C LFE Ls Rs Частота : 48,0 КГц Частота кадров : 31,250 кадров/сек (1536 SPF) Метод сжатия : С потерями Размер потока : 257 Мбайт (5%) Заголовок : MVO - TVShows Язык : Russian Service kind : Complete Main Default : Да Forced : Нет Аудио #2 Идентификатор : 3 Формат : E-AC-3 Формат/Информация : Enhanced AC-3 Коммерческое название : Dolby Digital Plus Идентификатор кодека : A_EAC3 Продолжительность : 1 ч. 33 м. Вид битрейта : Постоянный Битрейт : 640 Кбит/сек Каналы : 6 каналов Channel layout : L R C LFE Ls Rs Частота : 48,0 КГц Частота кадров : 31,250 кадров/сек (1536 SPF) Метод сжатия : С потерями Размер потока : 429 Мбайт (8%) Заголовок : Original Язык : English Service kind : Complete Main Default : Нет Forced : Нет Текст #1 Идентификатор : 4 Формат : UTF-8 Идентификатор кодека : S_TEXT/UTF8 Идентификатор кодека/Информация : UTF-8 Plain Text Продолжительность : 1 ч. 20 м. Битрейт : 0 бит/сек Count of elements : 5 Размер потока : 234 байт (0%) Заголовок : Язык : Russian Default : Да Forced : Нет Текст #2 Идентификатор : 5 Формат : UTF-8 Идентификатор кодека : S_TEXT/UTF8 Идентификатор кодека/Информация : UTF-8 Plain Text Продолжительность : 1 ч. 26 м. Битрейт : 32 бит/сек Count of elements : 586 Размер потока : 20,7 Кбайт (0%) Заголовок : ] Язык : Russian Default : Нет Forced : Нет Текст #3 Идентификатор : 6 Формат : UTF-8 Идентификатор кодека : S_TEXT/UTF8 Идентификатор кодека/Информация : UTF-8 Plain Text Продолжительность : 1 ч. 26 м. Битрейт : 22 бит/сек Count of elements : 576 Размер потока : 14,2 Кбайт (0%) Заголовок : Язык : English Default : Нет Forced : Нет Текст #4 Идентификатор : 7 Формат : UTF-8 Идентификатор кодека : S_TEXT/UTF8 Идентификатор кодека/Информация : UTF-8 Plain Text Продолжительность : 1 ч. 33 м. Битрейт : 32 бит/сек Count of elements : 1179 Размер потока : 22,6 Кбайт (0%) Заголовок : Язык : English Default : Нет Forced : Нет Меню 00:00:00.000 : en:Scene 01 01:29:57.041 : en:End Credits

Всего файлов в раздаче: 1 
Stopmotion.2023.1080p.AMZN_от New-Team.mkv5.23 GB

Похожие раздачи по запросу - Вуду
2024-06-06 magnet Вуду. Шёпот тьмы / Stopmotion (2023) WEB-DLRip-AVC | P | TVShows 1.65 GB ↑ 3 ↓ 0

Кто качает (только для создателя раздачи и модераторов): Локальные пиры отсутствуют

Комментарии


Зарегистрируйтесь чтобы добавить комментарий
Торрент клиент
byTorrent - программа для загрузки торрент-файлов.

Скачать byTorrent.exe (1,5 МБ)

Скачать byTorrent.zip (0,6 МБ)

Поддержи torrent.by
российских рублей
(300 российских рублей это 4$)

Обратная связь rss

End game ©