↑↓torrent.by
Поиск
Логин:  Регистрация
Пароль:

Шорси / Shoresy [S01] (2022) WEB-DL 1080p | Jaskier

download Скачать торрент-файл   magnet Магнитная ссылка Размер: 5.55 GB Добавлен: 2024-06-06 11:00
Пиры будут получены из сети DHT
Последний сидер был замечен 2024-06-07 15:28
Название: Шорси Оригинальное название: Shoresy Год выхода: 2022 Производство: Канада / New Metric Media, Play Fun Games Pictures Жанр: Комедия, спорт Перевод: Профессиональный многоголосый Продолжительность: 06х ~00:25:00 Режиссёры: Джейкоб Тирни В ролях: Джаред Кисо, Тася Телес, Харлан Блейн Китвайат, Блэр Ламора, Килани Элизабет Роуз, Джонатан Диаби, Эндрю Анцанен, Терри Райан, Райан Мак, Донелл, Макс Буффард Описание: Спин-офф Леттеркенни. Сериал предлагает погрузиться в историю Шорси. Главный персонаж этого повествования - очень крепкий духом и телом спортсмен, невероятно талантливый хоккеист. Герой перебирается на новое место. Теперь он будет базироваться в Садбери. В этом месте действующему персонажу предстоит бороться за выживание вместе с новым коллективом. Команда Senior Triple A то и дело барахтается в хвосте турнирной таблицы, однако с новыми вливаниями в состав всё может круто измениться. Шорси решает, что больше никогда не потерпит поражения. Формат: MKV Качество: WEB-DL 1080p Видео: MPEG4 AVC / ~4156 kbps / 1920x1080 / 0.084 Бит/(Пиксели*Кадры) / 23.976 fps Аудио 01: AC-3, 6 ch, 448 kbps | Русский, MVO | Jaskier | 18+ Аудио 02: AC-3, 6 ch, 384 kbps | Original | Субтитры: Русские, английские
[+] MediainfoGeneral Unique ID : 149497004222757930993176704622155684338 (0x70781361438F7867B34DF97B3AE659F2) Complete name : ../serials2/Shoresy/Shoresy.S01.1080p.WEB.H264.Rus.Eng/Shoresy.S01E01.1080p.WEB.H264.Rus.Eng.mkv Format : Matroska Format version : Version 4 File size : 752 MiB Duration : 21 min 3 s Overall bit rate : 4 991 kb/s Frame rate : 23.976 FPS Encoded date : 2024-05-27 15:01:56 UTC Writing application : mkvmerge v84.0 ('Sleeper') 64-bit Writing library : libebml v1.4.5 + libmatroska v1.7.1 Video ID : 1 Format : AVC Format/Info : Advanced Video Codec Format profile : High@L4 Format settings : CABAC / 4 Ref Frames Format settings, CABAC : Yes Format settings, Reference frames : 4 frames Codec ID : V_MPEG4/ISO/AVC Duration : 21 min 3 s Bit rate : 4 156 kb/s Width : 1 920 pixels Height : 1 080 pixels Display aspect ratio : 16:9 Frame rate mode : Constant Frame rate : 23.976 (24000/1001) FPS Color space : YUV Chroma subsampling : 4:2:0 Bit depth : 8 bits Scan type : Progressive Bits/(Pixel*Frame) : 0.084 Stream size : 626 MiB (83%) Default : Yes Forced : No Color range : Limited Color primaries : BT.709 Transfer characteristics : BT.709 Matrix coefficients : BT.709 Audio #1 ID : 2 Format : AC-3 Format/Info : Audio Coding 3 Commercial name : Dolby Digital Codec ID : A_AC3 Duration : 21 min 3 s Bit rate mode : Constant Bit rate : 448 kb/s Channel(s) : 6 channels Channel layout : L R C LFE Ls Rs Sampling rate : 48.0 kHz Frame rate : 31.250 FPS (1536 SPF) Compression mode : Lossy Stream size : 67.5 MiB (9%) Title : Jask Language : Russian Service kind : Complete Main Default : Yes Forced : No Dialog Normalization : -31 dB cmixlev : -4.5 dB surmixlev : -6 dB dialnorm_Average : -31 dB dialnorm_Minimum : -31 dB dialnorm_Maximum : -31 dB Audio #2 ID : 3 Format : AC-3 Format/Info : Audio Coding 3 Commercial name : Dolby Digital Codec ID : A_AC3 Duration : 21 min 3 s Bit rate mode : Constant Bit rate : 384 kb/s Channel(s) : 6 channels Channel layout : L R C LFE Ls Rs Sampling rate : 48.0 kHz Frame rate : 31.250 FPS (1536 SPF) Compression mode : Lossy Stream size : 57.8 MiB (8%) Language : English Service kind : Complete Main Default : No Forced : No Dialog Normalization : -31 dB cmixlev : -4.5 dB surmixlev : -6 dB dialnorm_Average : -31 dB dialnorm_Minimum : -31 dB dialnorm_Maximum : -31 dB Text #1 ID : 4 Format : UTF-8 Codec ID : S_TEXT/UTF8 Codec ID/Info : UTF-8 Plain Text Duration : 19 min 54 s Bit rate : 160 b/s Frame rate : 0.465 FPS Count of elements : 555 Stream size : 23.4 KiB (0%) Language : Russian Default : No Forced : No Text #2 ID : 5 Format : UTF-8 Codec ID : S_TEXT/UTF8 Codec ID/Info : UTF-8 Plain Text Duration : 20 min 2 s Bit rate : 141 b/s Frame rate : 0.399 FPS Count of elements : 480 Stream size : 20.8 KiB (0%) Title : English Language : English Default : No Forced : No
[+] Скриншоты

Всего файлов в раздаче: 6 
Shoresy.S01E01.1080p.WEB.H264.Rus.Eng.mkv751.54 MB
Shoresy.S01E02.1080p.WEB.H264.Rus.Eng.mkv923.64 MB
Shoresy.S01E03.1080p.WEB.H264.Rus.Eng.mkv1.03 GB
Shoresy.S01E04.1080p.WEB.H264.Rus.Eng.mkv744.22 MB
Shoresy.S01E05.1080p.WEB.H264.Rus.Eng.mkv1015.08 MB
Shoresy.S01E06.1080p.WEB.H264.Rus.Eng.mkv1.16 GB

Похожие раздачи по запросу - Шорси
2024-06-05 magnet Шорси / Shoresy [S02] (2023) WEB-DL 1080p | Jaskier 5.45 GB ↑ 0 ↓ 0

Кто качает (только для создателя раздачи и модераторов): Локальные пиры отсутствуют

Комментарии


Зарегистрируйтесь чтобы добавить комментарий
Торрент клиент
byTorrent - программа для загрузки торрент-файлов.

Скачать byTorrent.exe (1,5 МБ)

Скачать byTorrent.zip (0,6 МБ)

Поддержи torrent.by
российских рублей
(300 российских рублей это 4$)

Обратная связь rss

End game ©