↑↓torrent.by
Поиск
Логин:  Регистрация
Пароль:

Ронин / Ronin (1998) BDRip-HEVC 1080p от RIPS CLUB | D, P, P2, A, L1 | 4K Remastered

download Скачать торрент-файл   magnet Магнитная ссылка Размер: 15.02 GB Добавлен: 2024-06-06 11:00
Пиры будут получены из сети DHT
Последний сидер был замечен 2024-06-14 11:39
Информация о фильме Название: Ронин Оригинальное название: Ronin Год производства: 1998 Производство: Великобритания, Франция, США / FGM Entertainment, United Artists, United Artists Corporation Ltd. Жанр: боевик, триллер, криминал, приключения Режиссер: Джон Франкенхаймер В ролях: Роберт Де Ниро, Жан Рено, Наташа МакЭлхоун, Стеллан Скарсгард, Шон Бин, Скипп Саддат, Микаэль Лонсдаль, Ян Тршиска, Джонатан Прайс, Рон Перкинс О фильме: Хотя холодная война давно закончена, тайные наемники, чьи навыки в слежке, шпионаже и силовых схватках буквально легендарны, остаются востребованными при новом мировом порядке и всегда находят высокооплачиваемую работу. Некий таинственный клиент собирает в Париже команду таких «платных оперативников», известных как «Ронины», для похищения сверхсекретного портфеля. Вскоре выясняется, что это, на первый взгляд простое, задание почти невыполнимо: та же цена обещана за тот же портфель еще нескольким нелегальным группам. Чтобы справиться с работой, бывший агент ЦРУ по кличке «Сэм» и его наспех сколоченный отряд должны делать то, чего им не приходилось делать никогда раньше: довериться друг другу… Продолжительность: 02:01:34 Перевод: дублированный, многоголосый профессиональный, двухголосый профессиональный, авторский, любительский одноголосый Качество: BDRip-HEVC 1080p Кодек: HEVC (x265) Видео: 1920x816, 9453 Kbps, HEVC (Main10@L.4.1@High) 10 бит Звук: Аудио1: AC3, 2 ch, 192 Kbps - Русский, DUB (Невафильм) Аудио2: AC3, 2 ch, 192 Kbps - Русский, DUB (ТВ3) Аудио3: AC3, 6 ch, 640 Kbps - Русский, MVO (R5) Аудио4: AC3, 6 ch, 640 Kbps - Русский, MVO (LDV / С.Р.И. / Киномания) Аудио5: AC3, 6 ch, 640 Kbps - Русский, MVO (FDV / Домашнее видео) Аудио6: AC3, 2 ch, 224 Kbps - Русский, MVO (Союз Видео) Аудио7: AC3, 2 ch, 192 Kbps - Русский, MVO (Варус видео) Аудио8: AC3, 2 ch, 192 Kbps - Русский, MVO (Лазер видео) Аудио9: AC3, 2 ch, 192 Kbps - Русский, MVO (Первый Канал) Аудио10: AC3, 2 ch, 192 Kbps - Русский, MVO (Интра Комюникейшнс) Аудио11: AC3, 2 ch, 192 Kbps - Русский, MVO (НТВ) Аудио12: AC3, 2 ch, 192 Kbps - Русский, DVO (НТВ+ #1) Аудио13: AC3, 2 ch, 192 Kbps - Русский, DVO (НТВ+ #2) Аудио14: AC3, 6 ch, 640 Kbps - Русский, AVO (Андрей Гаврилов) Аудио15: AC3, 6 ch, 640 Kbps - Русский, AVO (Юрий Живов) Аудио16: AC3, 6 ch, 640 Kbps - Русский, AVO (Максим Латышев / "Егор Хрусталёв") Аудио17: AC3, 6 ch, 384 Kbps - Русский, AVO (Неизвестный переводчик "Диктор компании C.D.V." / "Matros" ("Матрос") Аудио18: AC3, 2 ch, 192 Kbps - Русский, AVO (Сергей Визгунов) Аудио19: AC3, 2 ch, 192 Kbps - Русский, AVO (Александр Кашкин) Аудио20: AC3, 6 ch, 640 Kbps - Русский, AVO (Дмитрий Есарев) Аудио21: AC3, 2 ch, 192 Kbps - Русский, VO (Николай "Антонов") Аудио22: AC3, 2 ch, 192 Kbps - Русский, VO (Данис Нурмухаметов по переводу Uncle_killer) Аудио23: AC3, 6 ch, 640 Kbps - Английский Субтитры: русские, английские (full, forced, SDH) Навигация по главам: Есть
[+] Лог (x265 info) + Mediainfo x265 : frame I: 735, Avg QP:17.95 kb/s: 22403.81 x265 : frame P: 30581, Avg QP:19.37 kb/s: 17356.70 x265 : frame B: 143584, Avg QP:21.10 kb/s: 7702.85 x265 : Weighted P-Frames: Y:6.3% UV:5.1% x265 : Weighted B-Frames: Y:4.3% UV:3.1% x265 : encoded 174900 frames in 139239.74s (1.26 fps), 9452.59 kb/s, Avg QP:20.78 Общее Уникальный идентификатор : 329912412060356300032415852514363094960 (0xF832D1C05864663BEBD98EE7A990B7B0) Полное имя : .Ронин.Ronin.1998.4K.Remastered.BDRip-HEVC.1080p.mkv Формат : Matroska Версия формата : Version 4 Размер файла : 15,0 Гбайт Продолжительность : 2 ч. 1 мин. Общий битрейт : 17,7 Мбит/сек Частота кадров : 23,976 кадра/сек Название фильма : Ронин / Ронин Кодирование выполнил : OldGamer Тип содержимого : Movie Дата выпуска : 1998-09-25 Дата записи : 1998-09-25 Программа кодирования : mkvmerge v83.0 ('Circle Of Friends') 64-bit Библиотека кодирования : libebml v1.4.5 + libmatroska v1.7.1 / xvid4psp5 Обложка : Yes Attachments : cover.jpg ACTOR : Роберт Де Ниро, Жан Рено, Наташа МакЭлхоун, Стеллан Скарсгард, Skipp Sudduth, Джонатан Прайс, Шон Бин, Michael Lonsdale, Féodor Atkine, Katarina Witt, Ron Perkins, Daniel Breton, Amidou, Jan Tříska, Bernard Bloch, Léopoldine Serre, Dominic Gugliamett... ARTIST : Роберт Де Ниро, Жан Рено, Наташа МакЭлхоун, Стеллан Скарсгард, Skipp Sudduth, Джонатан Прайс, Шон Бин, Michael Lonsdale, Féodor Atkine, Katarina Witt, Ron Perkins, Daniel Breton, Amidou, Jan Tříska, Bernard Bloch, Léopoldine Serre, Dominic Gugliamett... DIRECTOR : John Frankenheimer GENRE : боевик, триллер, криминал LAW_RATING : R PRODUCER : Frank Mancuso Jr. PRODUCTION_STUDIO : FGM Entertainment RATING : R SCREENPLAY_BY : J.D. Zeik, David Mamet SYNOPSIS : Хотя холодная война давно закончена, тайные наемники, чьи навыки в слежке, шпионаже и силовых схватках буквально легендарны, остаются востребованными при новом мировом порядке и всегда находят высокооплачиваемую работу. Некий таинственный клиент собирает в Париже команду таких «платных оперативников», известных как «Ронины», для похищения сверхсекретного портфеля.Вскоре выясняется, что это, на первый взгляд простое, задание почти невыполнимо: та же цена обещана за тот же портфель еще нескольким нелегальным группам... WRITTEN_BY : J.D. Zeik, David Mamet Видео Идентификатор : 1 Формат : HEVC Формат/Информация : High Efficiency Video Coding Профиль формата : Main 10@L4.1@High Идентификатор кодека : V_MPEGH/ISO/HEVC Продолжительность : 2 ч. 1 мин. Битрейт : 9 453 Кбит/сек Ширина : 1 920 пикселей Высота : 816 пикселей Соотношение сторон дисплея : 2,35:1 Режим частоты кадров : Постоянный Частота кадров : 23,976 (24000/1001) кадра/сек Цветовое пространство : YUV Цветовая субдискретизация : 4:2:0 Битовая глубина : 10 бит Бит/(Пиксели*Кадры) : 0.252 Размер потока : 8,03 Гбайт (53%) Заголовок : Ronin / Rip by OldGamer Библиотека кодирования : x265 3.6+12-f3c5fbaff: 10bit Параметры библиотеки кодирования : cpuid=1111039 / frame-threads=3 / numa-pools=8 / wpp / no-pmode / no-pme / no-psnr / no-ssim / log-level=2 / input-csp=1 / input-res=1920x816 / interlace=0 / total-frames=174900 / level-idc=41 / high-tier=1 / uhd-bd=0 / ref=5 / no-allow-non-conformance / no-repeat-headers / annexb / no-aud / no-eob / no-eos / no-hrd / info / hash=0 / temporal-layers=0 / open-gop / min-keyint=23 / keyint=240 / gop-lookahead=0 / bframes=16 / b-adapt=2 / b-pyramid / bframe-bias=0 / rc-lookahead=60 / lookahead-slices=0 / scenecut=40 / no-hist-scenecut / radl=0 / no-splice / no-intra-refresh / ctu=32 / min-cu-size=8 / rect / amp / max-tu-size=32 / tu-inter-depth=4 / tu-intra-depth=4 / limit-tu=1 / rdoq-level=2 / dynamic-rd=0.00 / no-ssim-rd / signhide / no-tskip / nr-intra=0 / nr-inter=0 / no-constrained-intra / no-strong-intra-smoothing / max-merge=5 / limit-refs=3 / no-limit-modes / me=3 / subme=7 / merange=57 / temporal-mvp / no-frame-dup / no-hme / weightp / weightb / no-analyze-src-pics / deblock=-2:-2 / no-sao / no-sao-non-deblock / rd=6 / selective-sao=0 / no-early-skip / no-rskip / no-fast-intra / no-tskip-fast / no-cu-lossless / b-intra / no-splitrd-skip / rdpenalty=0 / psy-rd=2.00 / psy-rdoq=1.00 / no-rd-refine / no-lossless / cbqpoffs=0 / crqpoffs=0 / rc=crf / crf=19.6 / qcomp=0.60 / qpstep=4 / stats-write=0 / stats-read=0 / vbv-maxrate=50000 / vbv-bufsize=50000 / vbv-init=0.9 / min-vbv-fullness=50.0 / max-vbv-fullness=80.0 / crf-max=0.0 / crf-min=0.0 / ipratio=1.40 / pbratio=1.30 / aq-mode=1 / aq-strength=1.00 / no-cutree / zone-count=1 / zones: / start-frame=168918 / end-frame=174900 / qp=36 / no-strict-cbr / qg-size=32 / no-rc-grain / qpmax=69 / qpmin=0 / no-const-vbv / sar=1 / overscan=0 / videoformat=5 / range=0 / colorprim=2 / transfer=2 / colormatrix=2 / chromaloc=0 / display-window=0 / cll=0,0 / min-luma=0 / max-luma=1023 / log2-max-poc-lsb=8 / vui-timing-info / vui-hrd-info / slices=1 / no-opt-qp-pps / no-opt-ref-list-length-pps / no-multi-pass-opt-rps / scenecut-bias=0.00 / no-opt-cu-delta-qp / no-aq-motion / no-hdr10 / no-hdr10-opt / no-dhdr10-opt / no-idr-recovery-sei / analysis-reuse-level=0 / analysis-save-reuse-level=0 / analysis-load-reuse-level=0 / scale-factor=0 / refine-intra=0 / refine-inter=0 / refine-mv=1 / refine-ctu-distortion=0 / no-limit-sao / ctu-info=0 / no-lowpass-dct / refine-analysis-type=0 / copy-pic=1 / max-ausize-factor=1.0 / no-dynamic-refine / no-single-sei / no-hevc-aq / no-svt / no-field / qp-adaptation-range=1.00 / scenecut-aware-qp=0conformance-window-offsets / right=0 / bottom=0 / decoder-max-rate=0 / no-vbv-live-multi-pass / no-mcstf / no-sbrc Язык : Английский По умолчанию : Да Принудительно : Нет Аудио #1 Идентификатор : 2 Формат : AC-3 Формат/Информация : Audio Coding 3 Коммерческое название : Dolby Digital Идентификатор кодека : A_AC3 Продолжительность : 2 ч. 1 мин. Вид битрейта : Постоянный Битрейт : 192 Кбит/сек Канал(-ы) : 2 канала Расположение каналов : L R Частота дискретизации : 48,0 КГц Частота кадров : 31,250 кадров/сек (1536 SPF) Метод сжатия : С потерями Размер потока : 167 Мбайт (1%) Заголовок : DUB (Невафильм) Язык : Русский Вид сервиса : Complete Main По умолчанию : Да Принудительно : Нет Нормализация звука речи : -27 dB dsurmod : Not Dolby Surround encoded dialnorm_Average : -27 dB dialnorm_Minimum : -27 dB dialnorm_Maximum : -27 dB Аудио #2 Идентификатор : 3 Формат : AC-3 Формат/Информация : Audio Coding 3 Коммерческое название : Dolby Digital Идентификатор кодека : A_AC3 Продолжительность : 2 ч. 1 мин. Вид битрейта : Постоянный Битрейт : 192 Кбит/сек Канал(-ы) : 2 канала Расположение каналов : L R Частота дискретизации : 48,0 КГц Частота кадров : 31,250 кадров/сек (1536 SPF) Метод сжатия : С потерями Размер потока : 167 Мбайт (1%) Заголовок : DUB (ТВ3) Язык : Русский Вид сервиса : Complete Main По умолчанию : Нет Принудительно : Нет Нормализация звука речи : -27 dB compr : -0.28 dB dialnorm_Average : -27 dB dialnorm_Minimum : -27 dB dialnorm_Maximum : -27 dB Аудио #3 Идентификатор : 4 Формат : AC-3 Формат/Информация : Audio Coding 3 Коммерческое название : Dolby Digital Идентификатор кодека : A_AC3 Продолжительность : 2 ч. 1 мин. Вид битрейта : Постоянный Битрейт : 640 Кбит/сек Канал(-ы) : 6 каналов Расположение каналов : L R C LFE Ls Rs Частота дискретизации : 48,0 КГц Частота кадров : 31,250 кадров/сек (1536 SPF) Метод сжатия : С потерями Размер потока : 556 Мбайт (4%) Заголовок : MVO (R5) Язык : Русский Вид сервиса : Complete Main По умолчанию : Нет Принудительно : Нет Нормализация звука речи : -27 dB compr : -0.28 dB cmixlev : -3.0 dB surmixlev : -3 dB mixlevel : 285 dB roomtyp : Small dialnorm_Average : -27 dB dialnorm_Minimum : -27 dB dialnorm_Maximum : -27 dB Аудио #4 Идентификатор : 5 Формат : AC-3 Формат/Информация : Audio Coding 3 Коммерческое название : Dolby Digital Идентификатор кодека : A_AC3 Продолжительность : 2 ч. 1 мин. Вид битрейта : Постоянный Битрейт : 640 Кбит/сек Канал(-ы) : 6 каналов Расположение каналов : L R C LFE Ls Rs Частота дискретизации : 48,0 КГц Частота кадров : 31,250 кадров/сек (1536 SPF) Метод сжатия : С потерями Размер потока : 556 Мбайт (4%) Заголовок : MVO (LDV / С.Р.И. / Киномания) Язык : Русский Вид сервиса : Complete Main По умолчанию : Нет Принудительно : Нет Нормализация звука речи : -27 dB compr : -0.28 dB cmixlev : -3.0 dB surmixlev : -3 dB mixlevel : 285 dB roomtyp : Small dialnorm_Average : -27 dB dialnorm_Minimum : -27 dB dialnorm_Maximum : -27 dB Аудио #5 Идентификатор : 6 Формат : AC-3 Формат/Информация : Audio Coding 3 Коммерческое название : Dolby Digital Идентификатор кодека : A_AC3 Продолжительность : 2 ч. 1 мин. Вид битрейта : Постоянный Битрейт : 640 Кбит/сек Канал(-ы) : 6 каналов Расположение каналов : L R C LFE Ls Rs Частота дискретизации : 48,0 КГц Частота кадров : 31,250 кадров/сек (1536 SPF) Метод сжатия : С потерями Размер потока : 556 Мбайт (4%) Заголовок : MVO (FDV / Домашнее видео) Язык : Русский Вид сервиса : Complete Main По умолчанию : Нет Принудительно : Нет Нормализация звука речи : -27 dB compr : -0.28 dB cmixlev : -3.0 dB surmixlev : -3 dB mixlevel : 285 dB roomtyp : Small dialnorm_Average : -27 dB dialnorm_Minimum : -27 dB dialnorm_Maximum : -27 dB Аудио #6 Идентификатор : 7 Формат : AC-3 Формат/Информация : Audio Coding 3 Коммерческое название : Dolby Digital Идентификатор кодека : A_AC3 Продолжительность : 2 ч. 1 мин. Вид битрейта : Постоянный Битрейт : 224 Кбит/сек Канал(-ы) : 2 канала Расположение каналов : L R Частота дискретизации : 48,0 КГц Частота кадров : 31,250 кадров/сек (1536 SPF) Метод сжатия : С потерями Размер потока : 195 Мбайт (1%) Заголовок : MVO (Союз Видео) Язык : Русский Вид сервиса : Complete Main По умолчанию : Нет Принудительно : Нет Нормализация звука речи : -31 dB dialnorm_Average : -31 dB dialnorm_Minimum : -31 dB dialnorm_Maximum : -31 dB Аудио #7 Идентификатор : 8 Формат : AC-3 Формат/Информация : Audio Coding 3 Коммерческое название : Dolby Digital Идентификатор кодека : A_AC3 Продолжительность : 2 ч. 1 мин. Вид битрейта : Постоянный Битрейт : 192 Кбит/сек Канал(-ы) : 2 канала Расположение каналов : L R Частота дискретизации : 48,0 КГц Частота кадров : 31,250 кадров/сек (1536 SPF) Метод сжатия : С потерями Размер потока : 167 Мбайт (1%) Заголовок : MVO (Варус видео) Язык : Русский Вид сервиса : Complete Main По умолчанию : Нет Принудительно : Нет Нормализация звука речи : -31 dB compr : -0.28 dB dynrng : -4.30 dB mixlevel : 285 dB roomtyp : Small dialnorm_Average : -31 dB dialnorm_Minimum : -31 dB dialnorm_Maximum : -31 dB Аудио #8 Идентификатор : 9 Формат : AC-3 Формат/Информация : Audio Coding 3 Коммерческое название : Dolby Digital Идентификатор кодека : A_AC3 Продолжительность : 2 ч. 1 мин. Вид битрейта : Постоянный Битрейт : 192 Кбит/сек Канал(-ы) : 2 канала Расположение каналов : L R Частота дискретизации : 48,0 КГц Частота кадров : 31,250 кадров/сек (1536 SPF) Метод сжатия : С потерями Размер потока : 167 Мбайт (1%) Заголовок : MVO (Лазер видео) Язык : Русский Вид сервиса : Complete Main По умолчанию : Нет Принудительно : Нет Нормализация звука речи : -31 dB compr : -0.28 dB dialnorm_Average : -31 dB dialnorm_Minimum : -31 dB dialnorm_Maximum : -31 dB Аудио #9 Идентификатор : 10 Формат : AC-3 Формат/Информация : Audio Coding 3 Коммерческое название : Dolby Digital Идентификатор кодека : A_AC3 Продолжительность : 2 ч. 1 мин. Вид битрейта : Постоянный Битрейт : 192 Кбит/сек Канал(-ы) : 2 канала Расположение каналов : L R Частота дискретизации : 48,0 КГц Частота кадров : 31,250 кадров/сек (1536 SPF) Метод сжатия : С потерями Размер потока : 167 Мбайт (1%) Заголовок : MVO (Первый Канал) Язык : Русский Вид сервиса : Complete Main По умолчанию : Нет Принудительно : Нет Нормализация звука речи : -27 dB compr : -0.28 dB dialnorm_Average : -27 dB dialnorm_Minimum : -27 dB dialnorm_Maximum : -27 dB Аудио #10 Идентификатор : 11 Формат : AC-3 Формат/Информация : Audio Coding 3 Коммерческое название : Dolby Digital Идентификатор кодека : A_AC3 Продолжительность : 2 ч. 1 мин. Вид битрейта : Постоянный Битрейт : 192 Кбит/сек Канал(-ы) : 2 канала Расположение каналов : L R Частота дискретизации : 48,0 КГц Частота кадров : 31,250 кадров/сек (1536 SPF) Метод сжатия : С потерями Размер потока : 167 Мбайт (1%) Заголовок : MVO (Интра Комюникейшнс) Язык : Русский Вид сервиса : Complete Main По умолчанию : Нет Принудительно : Нет Нормализация звука речи : -27 dB compr : -0.28 dB dialnorm_Average : -27 dB dialnorm_Minimum : -27 dB dialnorm_Maximum : -27 dB Аудио #11 Идентификатор : 12 Формат : AC-3 Формат/Информация : Audio Coding 3 Коммерческое название : Dolby Digital Идентификатор кодека : A_AC3 Продолжительность : 2 ч. 1 мин. Вид битрейта : Постоянный Битрейт : 192 Кбит/сек Канал(-ы) : 2 канала Расположение каналов : L R Частота дискретизации : 48,0 КГц Частота кадров : 31,250 кадров/сек (1536 SPF) Метод сжатия : С потерями Размер потока : 167 Мбайт (1%) Заголовок : MVO (НТВ) Язык : Русский Вид сервиса : Complete Main По умолчанию : Нет Принудительно : Нет Нормализация звука речи : -27 dB compr : -0.28 dB dynrng : -8.70 dB mixlevel : 285 dB roomtyp : Small dialnorm_Average : -27 dB dialnorm_Minimum : -27 dB dialnorm_Maximum : -27 dB Аудио #12 Идентификатор : 13 Формат : AC-3 Формат/Информация : Audio Coding 3 Коммерческое название : Dolby Digital Идентификатор кодека : A_AC3 Продолжительность : 2 ч. 1 мин. Вид битрейта : Постоянный Битрейт : 192 Кбит/сек Канал(-ы) : 2 канала Расположение каналов : L R Частота дискретизации : 48,0 КГц Частота кадров : 31,250 кадров/сек (1536 SPF) Метод сжатия : С потерями Размер потока : 167 Мбайт (1%) Заголовок : DVO (НТВ+ #1) Язык : Русский Вид сервиса : Complete Main По умолчанию : Нет Принудительно : Нет Нормализация звука речи : -27 dB compr : -0.28 dB dialnorm_Average : -27 dB dialnorm_Minimum : -27 dB dialnorm_Maximum : -27 dB Аудио #13 Идентификатор : 14 Формат : AC-3 Формат/Информация : Audio Coding 3 Коммерческое название : Dolby Digital Идентификатор кодека : A_AC3 Продолжительность : 2 ч. 1 мин. Вид битрейта : Постоянный Битрейт : 192 Кбит/сек Канал(-ы) : 2 канала Расположение каналов : L R Частота дискретизации : 48,0 КГц Частота кадров : 31,250 кадров/сек (1536 SPF) Метод сжатия : С потерями Размер потока : 167 Мбайт (1%) Заголовок : DVO (НТВ+ #2) Язык : Русский Вид сервиса : Complete Main По умолчанию : Нет Принудительно : Нет Нормализация звука речи : -27 dB compr : -0.28 dB dialnorm_Average : -27 dB dialnorm_Minimum : -27 dB dialnorm_Maximum : -27 dB Аудио #14 Идентификатор : 15 Формат : AC-3 Формат/Информация : Audio Coding 3 Коммерческое название : Dolby Digital Идентификатор кодека : A_AC3 Продолжительность : 2 ч. 1 мин. Вид битрейта : Постоянный Битрейт : 640 Кбит/сек Канал(-ы) : 6 каналов Расположение каналов : L R C LFE Ls Rs Частота дискретизации : 48,0 КГц Частота кадров : 31,250 кадров/сек (1536 SPF) Метод сжатия : С потерями Размер потока : 556 Мбайт (4%) Заголовок : AVO (Андрей Гаврилов) Язык : Русский Вид сервиса : Complete Main По умолчанию : Нет Принудительно : Нет Нормализация звука речи : -27 dB compr : -0.28 dB cmixlev : -3.0 dB surmixlev : -3 dB mixlevel : 285 dB roomtyp : Small dialnorm_Average : -27 dB dialnorm_Minimum : -27 dB dialnorm_Maximum : -27 dB Аудио #15 Идентификатор : 16 Формат : AC-3 Формат/Информация : Audio Coding 3 Коммерческое название : Dolby Digital Идентификатор кодека : A_AC3 Продолжительность : 2 ч. 1 мин. Вид битрейта : Постоянный Битрейт : 640 Кбит/сек Канал(-ы) : 6 каналов Расположение каналов : L R C LFE Ls Rs Частота дискретизации : 48,0 КГц Частота кадров : 31,250 кадров/сек (1536 SPF) Метод сжатия : С потерями Размер потока : 556 Мбайт (4%) Заголовок : AVO (Юрий Живов) Язык : Русский Вид сервиса : Complete Main По умолчанию : Нет Принудительно : Нет Нормализация звука речи : -27 dB compr : -0.28 dB cmixlev : -3.0 dB surmixlev : -3 dB mixlevel : 285 dB roomtyp : Small dialnorm_Average : -27 dB dialnorm_Minimum : -27 dB dialnorm_Maximum : -27 dB Аудио #16 Идентификатор : 17 Формат : AC-3 Формат/Информация : Audio Coding 3 Коммерческое название : Dolby Digital Идентификатор кодека : A_AC3 Продолжительность : 2 ч. 1 мин. Вид битрейта : Постоянный Битрейт : 640 Кбит/сек Канал(-ы) : 6 каналов Расположение каналов : L R C LFE Ls Rs Частота дискретизации : 48,0 КГц Частота кадров : 31,250 кадров/сек (1536 SPF) Метод сжатия : С потерями Размер потока : 556 Мбайт (4%) Заголовок : AVO (Максим Латышев / "Егор Хрусталёв") Язык : Русский Вид сервиса : Complete Main По умолчанию : Нет Принудительно : Нет Нормализация звука речи : -27 dB compr : -0.28 dB cmixlev : -3.0 dB surmixlev : -3 dB mixlevel : 285 dB roomtyp : Small dialnorm_Average : -27 dB dialnorm_Minimum : -27 dB dialnorm_Maximum : -27 dB Аудио #17 Идентификатор : 18 Формат : AC-3 Формат/Информация : Audio Coding 3 Коммерческое название : Dolby Digital Идентификатор кодека : A_AC3 Продолжительность : 2 ч. 1 мин. Вид битрейта : Постоянный Битрейт : 384 Кбит/сек Канал(-ы) : 6 каналов Расположение каналов : L R C LFE Ls Rs Частота дискретизации : 48,0 КГц Частота кадров : 31,250 кадров/сек (1536 SPF) Метод сжатия : С потерями Размер потока : 334 Мбайт (2%) Заголовок : AVO (Неизвестный переводчик "Диктор компании C.D.V." / "Matros" ("Матрос") Язык : Русский Вид сервиса : Complete Main По умолчанию : Нет Принудительно : Нет Нормализация звука речи : -27 dB cmixlev : -4.5 dB surmixlev : -3 dB dialnorm_Average : -27 dB dialnorm_Minimum : -27 dB dialnorm_Maximum : -27 dB Аудио #18 Идентификатор : 19 Формат : AC-3 Формат/Информация : Audio Coding 3 Коммерческое название : Dolby Digital Идентификатор кодека : A_AC3 Продолжительность : 2 ч. 1 мин. Вид битрейта : Постоянный Битрейт : 192 Кбит/сек Канал(-ы) : 2 канала Расположение каналов : L R Частота дискретизации : 48,0 КГц Частота кадров : 31,250 кадров/сек (1536 SPF) Метод сжатия : С потерями Размер потока : 167 Мбайт (1%) Заголовок : AVO (Сергей Визгунов) Язык : Русский Вид сервиса : Complete Main По умолчанию : Нет Принудительно : Нет Нормализация звука речи : -27 dB compr : -0.28 dB dynrng : -4.30 dB dsurmod : Not Dolby Surround encoded mixlevel : 285 dB roomtyp : Small dialnorm_Average : -27 dB dialnorm_Minimum : -27 dB dialnorm_Maximum : -27 dB Аудио #19 Идентификатор : 20 Формат : AC-3 Формат/Информация : Audio Coding 3 Коммерческое название : Dolby Digital Идентификатор кодека : A_AC3 Продолжительность : 2 ч. 1 мин. Вид битрейта : Постоянный Битрейт : 192 Кбит/сек Канал(-ы) : 2 канала Расположение каналов : L R Частота дискретизации : 48,0 КГц Частота кадров : 31,250 кадров/сек (1536 SPF) Метод сжатия : С потерями Размер потока : 167 Мбайт (1%) Заголовок : AVO (Александр Кашкин) Язык : Русский Вид сервиса : Complete Main По умолчанию : Нет Принудительно : Нет Нормализация звука речи : -27 dB compr : -0.28 dB dialnorm_Average : -27 dB dialnorm_Minimum : -27 dB dialnorm_Maximum : -27 dB Аудио #20 Идентификатор : 21 Формат : AC-3 Формат/Информация : Audio Coding 3 Коммерческое название : Dolby Digital Идентификатор кодека : A_AC3 Продолжительность : 2 ч. 1 мин. Вид битрейта : Постоянный Битрейт : 640 Кбит/сек Канал(-ы) : 6 каналов Расположение каналов : L R C LFE Ls Rs Частота дискретизации : 48,0 КГц Частота кадров : 31,250 кадров/сек (1536 SPF) Метод сжатия : С потерями Размер потока : 556 Мбайт (4%) Заголовок : VO (Дмитрий Есарев) Язык : Русский Вид сервиса : Complete Main По умолчанию : Нет Принудительно : Нет Нормализация звука речи : -27 dB compr : -0.28 dB cmixlev : -3.0 dB surmixlev : -3 dB mixlevel : 285 dB roomtyp : Small dialnorm_Average : -27 dB dialnorm_Minimum : -27 dB dialnorm_Maximum : -27 dB Аудио #21 Идентификатор : 22 Формат : AC-3 Формат/Информация : Audio Coding 3 Коммерческое название : Dolby Digital Идентификатор кодека : A_AC3 Продолжительность : 2 ч. 1 мин. Вид битрейта : Постоянный Битрейт : 192 Кбит/сек Канал(-ы) : 2 канала Расположение каналов : L R Частота дискретизации : 48,0 КГц Частота кадров : 31,250 кадров/сек (1536 SPF) Метод сжатия : С потерями Размер потока : 167 Мбайт (1%) Заголовок : VO (Николай "Антонов") Язык : Русский Вид сервиса : Complete Main По умолчанию : Нет Принудительно : Нет Нормализация звука речи : -27 dB compr : -0.28 dB dialnorm_Average : -27 dB dialnorm_Minimum : -27 dB dialnorm_Maximum : -27 dB Аудио #22 Идентификатор : 23 Формат : AC-3 Формат/Информация : Audio Coding 3 Коммерческое название : Dolby Digital Идентификатор кодека : A_AC3 Продолжительность : 2 ч. 1 мин. Вид битрейта : Постоянный Битрейт : 192 Кбит/сек Канал(-ы) : 2 канала Расположение каналов : L R Частота дискретизации : 48,0 КГц Частота кадров : 31,250 кадров/сек (1536 SPF) Метод сжатия : С потерями Размер потока : 167 Мбайт (1%) Заголовок : VO (Данис Нурмухаметов по переводу Uncle_killer) Язык : Русский Вид сервиса : Complete Main По умолчанию : Нет Принудительно : Нет Нормализация звука речи : -31 dB dmixmod : Lo/Ro ltrtcmixlev : -3.0 dB ltrtsurmixlev : -3.0 dB lorocmixlev : -3.0 dB lorosurmixlev : -3.0 dB dialnorm_Average : -31 dB dialnorm_Minimum : -31 dB dialnorm_Maximum : -31 dB Аудио #23 Идентификатор : 24 Формат : AC-3 Формат/Информация : Audio Coding 3 Коммерческое название : Dolby Digital Идентификатор кодека : A_AC3 Продолжительность : 2 ч. 1 мин. Вид битрейта : Постоянный Битрейт : 640 Кбит/сек Канал(-ы) : 6 каналов Расположение каналов : L R C LFE Ls Rs Частота дискретизации : 48,0 КГц Частота кадров : 31,250 кадров/сек (1536 SPF) Метод сжатия : С потерями Размер потока : 557 Мбайт (4%) Язык : Английский Вид сервиса : Complete Main По умолчанию : Нет Принудительно : Нет Нормализация звука речи : -27 dB compr : -0.28 dB cmixlev : -3.0 dB surmixlev : -3 dB mixlevel : 285 dB roomtyp : Small dialnorm_Average : -27 dB dialnorm_Minimum : -27 dB dialnorm_Maximum : -27 dB Текст #1 Идентификатор : 25 Формат : UTF-8 Идентификатор кодека : S_TEXT/UTF8 Идентификатор кодека/Информация : UTF-8 Plain Text Продолжительность : 2 ч. 1 мин. Битрейт : 53 бит/сек Частота кадров : 0,127 кадр/сек Число элементов : 924 Размер потока : 47,8 КиБ (0%) Заголовок : R5 Язык : Русский По умолчанию : Нет Принудительно : Нет Текст #2 Идентификатор : 26 Формат : UTF-8 Идентификатор кодека : S_TEXT/UTF8 Идентификатор кодека/Информация : UTF-8 Plain Text Продолжительность : 1 ч. 56 мин. Битрейт : 58 бит/сек Частота кадров : 0,130 кадр/сек Число элементов : 914 Размер потока : 49,9 КиБ (0%) Заголовок : Uncle_killer Язык : Русский По умолчанию : Нет Принудительно : Нет Текст #3 Идентификатор : 27 Формат : UTF-8 Идентификатор кодека : S_TEXT/UTF8 Идентификатор кодека/Информация : UTF-8 Plain Text Продолжительность : 1 ч. 55 мин. Битрейт : 54 бит/сек Частота кадров : 0,119 кадр/сек Число элементов : 825 Размер потока : 46,4 КиБ (0%) Заголовок : v3 Язык : Русский По умолчанию : Нет Принудительно : Нет Текст #4 Идентификатор : 28 Формат : UTF-8 Идентификатор кодека : S_TEXT/UTF8 Идентификатор кодека/Информация : UTF-8 Plain Text Продолжительность : 1 ч. 47 мин. Битрейт : 3 бит/сек Частота кадров : 0,017 кадр/сек Число элементов : 107 Размер потока : 2,72 КиБ (0%) Заголовок : forced Язык : Английский По умолчанию : Нет Принудительно : Нет Текст #5 Идентификатор : 29 Формат : UTF-8 Идентификатор кодека : S_TEXT/UTF8 Идентификатор кодека/Информация : UTF-8 Plain Text Продолжительность : 1 ч. 53 мин. Битрейт : 36 бит/сек Частота кадров : 0,130 кадр/сек Число элементов : 890 Размер потока : 30,6 КиБ (0%) Заголовок : full Язык : Английский По умолчанию : Нет Принудительно : Нет Текст #6 Идентификатор : 30 Формат : UTF-8 Идентификатор кодека : S_TEXT/UTF8 Идентификатор кодека/Информация : UTF-8 Plain Text Продолжительность : 1 ч. 54 мин. Битрейт : 39 бит/сек Частота кадров : 0,142 кадр/сек Число элементов : 981 Размер потока : 33,0 КиБ (0%) Заголовок : SDH Язык : Английский По умолчанию : Нет Принудительно : Нет Меню 00:00:00.000 : en:Start 00:07:01.796 : en:Team Dynamics 00:10:28.961 : en:Botched Exchange 00:15:23.339 : en:New Negotiations 00:17:22.082 : en:Photographic Study 00:18:55.050 : en:Remote Sensor Tracking 00:24:12.784 : en:In Search Of Gregor 00:26:20.662 : en:Answering To The Boss 00:27:20.138 : en:Those Who Wait... 00:31:22.171 : en:The Link To The Case 00:33:54.490 : en:Ice-Skating Gala 00:39:19.899 : en:Farewell 00:41:19.351 : en:Bull's-Eye Bombing 00:45:21.719 : en:Chasing The Target 00:49:51.238 : en:Crashing The Case 00:51:35.842 : en:Spiritual Doctor 00:54:35.563 : en:"Life Is Uncertain" 00:57:32.240 : en:Gregor's Icy Ring 00:58:53.238 : en:"I Need Your Help!" 01:01:21.344 : en:The Arena Massacre 01:09:04.598 : en:Directing Surgery 01:14:48.275 : en:Seamus' Hostility 01:20:06.051 : en:Masterless Samurai 01:24:01.494 : en:Fragile Hesitation 01:27:05.345 : en:Chases To Die For 01:35:04.323 : en:A Questionable Case 01:39:31.924 : en:Scary Ice Skating 01:45:25.110 : en:Gregor's Gunned Down 01:49:22.264 : en:A Frenzy Of Fleeing 01:51:49.411 : en:Showdown With Seamus 01:53:46.402 : en:"Peaceful" Closure
[+] Скриншоты
Релиз от: OldGamer ЦитатаКто-то писал:дорожка с переводом Есарева обозначена авторской по правилам оформления презентаций на трекере, на других ресурсах сети может быть другое обозначение

Всего файлов в раздаче: 1 
Ронин.Ronin.1998.4K.Remastered.BDRip-HEVC.1080p.mkv15.02 GB

Похожие раздачи по запросу - Ронин
2024-06-09 magnet Ронин / Ronin (1998) HDTVRip 720p | P, D, A | Open Matte 6.89 GB ↑ 0 ↓ 0
2024-06-06 magnet Ронин / Ronin (1998) HybridRip-AVC от DoMiNo | D | Open Matte 2.18 GB ↑ 0 ↓ 0
2024-06-06 magnet Ронин / Ronin (1998) HybridRip-AVC от DoMiNo | D | Open Matte 745.46 MB ↑ 0 ↓ 0
2024-03-18 magnet Александр Воробьев, Роман Злотников - Ронин (2013) MP3 1.11 GB ↑ 0 ↓ 0

Кто качает (только для создателя раздачи и модераторов): Локальные пиры отсутствуют

Комментарии


Зарегистрируйтесь чтобы добавить комментарий
Торрент клиент
byTorrent - программа для загрузки торрент-файлов.

Скачать byTorrent.exe (1,5 МБ)

Скачать byTorrent.zip (0,6 МБ)

Поддержи torrent.by
российских рублей
(300 российских рублей это 4$)

Обратная связь rss

End game ©