↑↓torrent.by
Поиск
Логин:  Регистрация
Пароль:

Обитель страха / Лазарет / Lazareth (2024) WEB-DLRip от New-Team | P2 | ViruseProject

download Скачать торрент-файл   magnet Магнитная ссылка Размер: 1.46 GB Раздают: 0 Качают: 1 Добавлен: 2024-06-06 11:00
Пиры будут получены из сети DHT
Последний сидер был замечен 2024-06-07 17:21
Обитель страха / Лазарет / Lazareth Год выпуска: 2024 Выпущено: США / Vertical Entertainment, The Syndicate, Three Point Capital (TPC) Жанр: триллер Режиссер: Алек Тибальди / Alec Tibaldi В ролях: Эшли Джадд, Сара Пиджон, Кэти Дуглас, Эшер Энджел, Эдвард Балабан, Кайла Браун, Эдди Уоллрейб, Харли Рид, Кристин Уэбе, Полина Патино О фильме: Ли и ее осиротевшие племянницы более 10 лет живут в изоляции. Они поселились в диком лесу и абсолютно не контактируют с внешним миром, охваченным смертельной эпидемией. Но однажды к ним в дом попадает раненый подросток, а вместе с ним и огромная опасность, которая ставит под удар каждого из них. Продолжительность: 01:25:54 Перевод: Профессиональный (двухголосый, закадровый) | ViruseProject Субтитры: Нет. Раздача от: Автор релиза: JNS82. Формат: AVI Качество: WEB-DLRip Видео: 704x400 (16:9), 23.976 fps, XviD MPEG-4 ~ 2037 kbps avg, 0.302 bit/pixel, build 73 Аудио: 48 kHz, AC3 Dolby Digital, 2/0 (L,R) ch, ~ 192 kbps kbps | RUS | Аудио: 48 kHz, AC3 Dolby Digital, 2/0 (L,R) ch, ~ 192 kbps kbps | ENG |
[+] MediaInfoОбщее Полное имя : D:TorrentsLazareth.2024.WEB-DLRip_от New-Team_by_JNS82.avi Формат : AVI Формат/Информация : Audio Video Interleave Размер файла : 1,46 Гбайт Продолжительность : 1 ч. 25 м. Общий поток : 2 436 Кбит/сек Программа кодирования : VirtualDubMod 1.5.10.2 (build 2540/release) Библиотека кодирования : VirtualDubMod build 2540/release Видео Идентификатор : 0 Формат : MPEG-4 Visual Профиль формата : Advanced Simple@L5 Настройки формата : BVOP1 / Custom Matrix Параметр BVOP формата : 1 Параметр QPel формата : Нет Параметр GMC формата : Без точки перехода Параметр матрицы формата : Выборочная Идентификатор кодека : XVID Идентификатор кодека/Подсказка : XviD Продолжительность : 1 ч. 25 м. Битрейт : 2 037 Кбит/сек Ширина : 704 пикселя Высота : 400 пикселей Соотношение сторон : 16:9 Частота кадров : 23,976 (24000/1001) кадра/сек Цветовое пространство : YUV Субдискретизация насыщенности : 4:2:0 Битовая глубина : 8 бит Тип развёртки : Прогрессивная Метод сжатия : С потерями Бит/(Пиксели*Кадры) : 0.302 Размер потока : 1,22 Гбайт (84%) Библиотека кодирования : XviD 73 Аудио #1 Идентификатор : 1 Формат : AC-3 Формат/Информация : Audio Coding 3 Коммерческое название : Dolby Digital Идентификатор кодека : 2000 Продолжительность : 1 ч. 25 м. Вид битрейта : Постоянный Битрейт : 192 Кбит/сек Каналы : 2 канала Channel layout : L R Частота : 48,0 КГц Частота кадров : 31,250 кадров/сек (1536 SPF) Метод сжатия : С потерями Размер потока : 118 Мбайт (8%) Выравнивание : Разделение по промежуткам Продолжительность промежутка : 42 мс. (1,00 видеокадр) Время предзагрузки промежутка : 500 мс. Заголовок : ViruseProject Service kind : Complete Main Аудио #2 Идентификатор : 2 Формат : AC-3 Формат/Информация : Audio Coding 3 Коммерческое название : Dolby Digital Идентификатор кодека : 2000 Продолжительность : 1 ч. 25 м. Вид битрейта : Постоянный Битрейт : 192 Кбит/сек Каналы : 2 канала Channel layout : L R Частота : 48,0 КГц Частота кадров : 31,250 кадров/сек (1536 SPF) Метод сжатия : С потерями Размер потока : 118 Мбайт (8%) Выравнивание : Разделение по промежуткам Продолжительность промежутка : 42 мс. (1,00 видеокадр) Время предзагрузки промежутка : 500 мс. Заголовок : Original Service kind : Complete Main

Всего файлов в раздаче: 1 
Lazareth.2024.WEB-DLRip_от New-Team_by_JNS82.avi1.46 GB

Похожие раздачи по запросу - Обитель
2024-06-06 magnet Обитель страха / Лазарет / Lazareth (2024) WEB-DL 1080p | ViruseProject 5.28 GB ↑ 1 ↓ 1
2024-06-06 magnet Обитель страха / Лазарет / Lazareth (2024) WEB-DL 720p от селезень | P2 | ViruseProject 2.46 GB ↑ 0 ↓ 0
2024-06-06 magnet Обитель страха / Лазарет / Lazareth (2024) WEB-DLRip-AVC | P2 | ViruseProject 1.31 GB ↑ 8 ↓ 0
2024-06-05 magnet Обитель лжи / Secrets Beneath the Floorboards (2023) WEB-DLRip-AVC от New-Team | D 1.47 GB ↑ 0 ↓ 0
2024-06-05 magnet Обитель лжи / Secrets Beneath the Floorboards (2023) WEB-DLRip от MegaPeer | D 1.46 GB ↑ 0 ↓ 2
2024-06-05 magnet Обитель лжи / Secrets Beneath the Floorboards (2023) WEB-DL 1080p | D 3.53 GB ↑ 0 ↓ 2
2024-06-05 magnet Обитель тьмы / Heilstätten (2018) BDRip 1080p | iTunes 1К7.88 GB ↑ 0 ↓ 0

Комментарии


Зарегистрируйтесь чтобы добавить комментарий
Торрент клиент
byTorrent - программа для загрузки торрент-файлов.

Скачать byTorrent.exe (1,5 МБ)

Скачать byTorrent.zip (0,6 МБ)

Поддержи torrent.by
российских рублей
(300 российских рублей это 4$)

Обратная связь rss

End game ©