↑↓torrent.by
Поиск
Логин:  Регистрация
Пароль:

Обитель страха / Лазарет / Lazareth (2024) WEB-DLRip-AVC | P2 | ViruseProject

download Скачать торрент-файл   magnet Магнитная ссылка Размер: 1.31 GB Раздают: 6 Качают: 1 Добавлен: il68k 2024-06-06 12:32
Пиры будут получены из сети DHT
Последний сидер был замечен сегодня в 01:06
Информация о фильме Название: Обитель страха / Лазарет Оригинальное название: Lazareth Год выхода: 2024 Жанр: триллер Режиссер: Алек Тибальди В ролях: Эшли Джадд, Сара Пиджон, Кэти Дуглас, Эшер Энджел, Эдвард Балабан, Кайла Браун, Эдди Уоллрейб, Харли Рид, Кристин Уэбе, Полина Патино О фильме: Ли и ее осиротевшие племянницы более 10 лет живут в изоляции. Они поселились в диком лесу и абсолютно не контактируют с внешним миром, охваченным смертельной эпидемией. Но однажды к ним в дом попадает раненый подросток, а вместе с ним и огромная опасность, которая ставит под удар каждого из них. Страна: США Студия: Vertical Entertainment, The Syndicate, Three Point Capital (TPC) Продолжительность: 01:25:54 Перевод: Профессиональный (двухголосый, закадровый) | ViruseProject Файл Кодек: Н.264 Качество: WEB-DLRip-AVC Видео: MPEG-4 AVC, 1542 kbps, 1024x576 (16:9), 23.976 fps, 0.109 bit/pixel, High@L4 Звук 1: 48 kHz, АС3 Dolby Digital, 2 (L, R) ch, 192 kbps | ViruseProject Звук 2: 48 kHz, AC3 Dolby Digital, 3/2 (L, C, R, l, r) + LFE ch, ~448 kbps | Английский Субтитры: английские (full, SDH) Семпл
[+] Скриншоты
[+] MediaInfo raw : 1024x576p 1:1 @ 24000/1001 fps (cfr) x264 : using SAR=1/1 x264 : using cpu capabilities: MMX2 SSE2Fast SSSE3 SSE4.2 AVX FMA3 BMI2 AVX2 x264 : profile High, level 4.1, 4:2:0, 8-bit x264 : frame I:801 Avg QP:12.36 size: 64581 x264 : frame P:25142 Avg QP:14.49 size: 20135 x264 : frame B:97649 Avg QP:15.94 size: 4458 x264 : consecutive B-frames: 1.0% 1.0% 4.0% 34.9% 12.5% 28.1% 6.6% 6.2% 1.5% 0.6% 0.7% 0.7% 0.8% 1.4% x264 : mb I I16..4: 23.3% 59.5% 17.3% x264 : mb P I16..4: 1.6% 6.0% 0.7% P16..4: 31.4% 22.0% 15.3% 0.0% 0.0% skip:22.9% x264 : mb B I16..4: 0.1% 0.2% 0.0% B16..8: 29.1% 8.3% 2.1% direct: 2.8% skip:57.4% L0:44.5% L1:47.0% BI: 8.5% x264 : 8x8 transform intra:68.8% inter:47.4% x264 : direct mvs spatial:99.9% temporal:0.1% x264 : coded y, uvDC, uvAC intra: 77.6% 75.1% 62.7% inter: 14.2% 11.9% 7.0% x264 : i16 v, h, dc, p: 61% 13% 17% 10% x264 : i8 v, h, dc, ddl, ddr, vr, hd, vl, hu: 12% 11% 19% 8% 10% 10% 10% 10% 11% x264 : i4 v, h, dc, ddl, ddr, vr, hd, vl, hu: 11% 12% 8% 9% 13% 13% 12% 11% 12% x264 : i8c dc, h, v, p: 56% 20% 15% 9% x264 : Weighted P-Frames: Y:6.5% UV:2.9% x264 : ref P L0: 47.2% 7.1% 17.2% 5.9% 5.5% 3.5% 4.2% 1.7% 1.9% 1.4% 1.7% 1.2% 1.5% 0.1% 0.0% x264 : ref B L0: 64.7% 14.1% 6.9% 3.5% 2.8% 2.1% 2.0% 1.1% 0.9% 0.9% 0.6% 0.3% x264 : ref B L1: 92.3% 7.7% x264 : kb/s:1541.52 x264 : encoded 123592 frames, 29.57 fps, 1541.52 kb/s =================================================================== General Unique ID: 140460771243996370150856770413534975765 (0x69ABC2B26CDF9CCE097E32F40CA91715) Complete name: D:\Obitel.straha.2024.AMZN.WEB-DLRip.AVC.mkv Format: Matroska Format version: Version 4 File size: 1.31 GiB Duration: 1 h 25 min Overall bit rate: 2 184 kb/s Frame rate: 23.976 FPS Movie name: Lazareth (2024) WEB-DLRip-AVC _ vtiolinform Encoded date: 2024-06-06 06:07:44 UTC Writing application: mkvmerge v85.0 ('Shame For You') 64-bit Writing library: libebml v1.4.5 + libmatroska v1.7.1 Attachments: poster.jpg / log.log Video ID: 1 Format: AVC Format/Info: Advanced Video Codec Format profile: High@L4.1 Format settings: CABAC / 13 Ref Frames Format settings, CABAC: Yes Format settings, Reference frames: 13 frames Codec ID: V_MPEG4/ISO/AVC Duration: 1 h 25 min Bit rate: 1 542 kb/s Width: 1 024 pixels Height: 576 pixels Display aspect ratio: 16:9 Frame rate mode: Constant Frame rate: 23.976 (24000/1001) FPS Color space: YUV Chroma subsampling: 4:2:0 Bit depth: 8 bits Scan type: Progressive Bits/(Pixel*Frame): 0.109 Stream size: 947 MiB (71%) Title: Обитель страха / Лазарет / Lazareth (2024) Writing library: x264 core 164 r3172 c1c9931 Encoding settings: cabac=1 / ref=13 / deblock=1:-3:-3 / analyse=0x3:0x113 / me=umh / subme=10 / psy=1 / psy_rd=1.00:0.15 / mixed_ref=1 / me_range=32 / chroma_me=1 / trellis=2 / 8x8dct=1 / cqm=0 / deadzone=21, 11 / fast_pskip=0 / chroma_qp_offset=-3 / threads=18 / lookahead_threads=4 / sliced_threads=0 / nr=0 / decimate=0 / interlaced=0 / bluray_compat=0 / constrained_intra=0 / bframes=13 / b_pyramid=2 / b_adapt=2 / b_bias=0 / direct=3 / weightb=1 / open_gop=0 / weightp=2 / keyint=250 / keyint_min=24 / scenecut=40 / intra_refresh=0 / rc_lookahead=60 / rc=crf / mbtree=0 / crf=19.0 / qcomp=0.60 / qpmin=0 / qpmax=69 / qpstep=4 / vbv_maxrate=50000 / vbv_bufsize=62500 / crf_max=0.0 / nal_hrd=none / filler=0 / ip_ratio=1.40 / pb_ratio=1.30 / aq=1:1.00 Language: English Default: Yes Forced: No Color range: Limited Color primaries: BT.709 Transfer characteristics: BT.709 Matrix coefficients: BT.709 Audio #1 ID: 2 Format: AC-3 Format/Info: Audio Coding 3 Commercial name: Dolby Digital Codec ID: A_AC3 Duration: 1 h 25 min Bit rate mode: Constant Bit rate: 192 kb/s Channel(s): 2 channels Channel layout: L R Sampling rate: 48.0 kHz Frame rate: 31.250 FPS (1536 SPF) Compression mode: Lossy Stream size: 118 MiB (9%) Title: DVO | ViruseProject Language: Russian Service kind: Complete Main Default: Yes Forced: No Audio #2 ID: 3 Format: AC-3 Format/Info: Audio Coding 3 Commercial name: Dolby Digital Codec ID: A_AC3 Duration: 1 h 25 min Bit rate mode: Constant Bit rate: 448 kb/s Channel(s): 6 channels Channel layout: L R C LFE Ls Rs Sampling rate: 48.0 kHz Frame rate: 31.250 FPS (1536 SPF) Compression mode: Lossy Stream size: 275 MiB (21%) Title: English Language: English Service kind: Complete Main Default: No Forced: No Text #1 ID: 4 Format: UTF-8 Codec ID: S_TEXT/UTF8 Codec ID/Info: UTF-8 Plain Text Duration: 1 h 21 min Bit rate: 27 b/s Frame rate: 0.143 FPS Count of elements: 697 Stream size: 16.3 KiB (0%) Title: Full Language: English Default: No Forced: No Text #2 ID: 5 Format: UTF-8 Codec ID: S_TEXT/UTF8 Codec ID/Info: UTF-8 Plain Text Duration: 1 h 24 min Bit rate: 33 b/s Frame rate: 0.181 FPS Count of elements: 920 Stream size: 20.6 KiB (0%) Title: SDH Language: English Default: No Forced: No Menu 00:00:00.000: en:Scene 01 01:25:49.000: en:End Credits
Rip by vitolinform

Всего файлов в раздаче: 1 
Obitel.straha.2024.AMZN.WEB-DLRip.AVC.mkv1.31 GB

Похожие раздачи по запросу - Обитель
2024-06-06 magnet Обитель страха / Лазарет / Lazareth (2024) WEB-DL 1080p | ViruseProject 5.28 GB ↑ 1 ↓ 0
2024-06-06 magnet Обитель страха / Лазарет / Lazareth (2024) WEB-DL 720p от селезень | P2 | ViruseProject 2.46 GB ↑ 0 ↓ 0
2024-06-06 magnet Обитель страха / Лазарет / Lazareth (2024) WEB-DLRip от New-Team | P2 | ViruseProject 1.46 GB ↑ 0 ↓ 0
2024-06-05 magnet Обитель лжи / Secrets Beneath the Floorboards (2023) WEB-DLRip-AVC от New-Team | D 1.47 GB ↑ 0 ↓ 0
2024-06-05 magnet Обитель лжи / Secrets Beneath the Floorboards (2023) WEB-DLRip от MegaPeer | D 1.46 GB ↑ 0 ↓ 1
2024-06-05 magnet Обитель лжи / Secrets Beneath the Floorboards (2023) WEB-DL 1080p | D 3.53 GB ↑ 0 ↓ 0
2024-06-05 magnet Обитель тьмы / Heilstätten (2018) BDRip 1080p | iTunes 1К7.88 GB ↑ 0 ↓ 0

Кто качает (только для создателя раздачи и модераторов):
ПользовательIP:портОтдалПринялОстатокСидируетТоррент клиентОбновился
1 Аноним 188.244.252.153:41766 1.43 GB 0.00 B 0.00 B да -UT3470- 00:51 2024-06-15
2 Аноним 94.141.241.32:10440 13.50 MB 0.00 B 0.00 B да -UT2210- 00:56 2024-06-15
3 Аноним 78.26.198.185:23150 273.56 MB 0.00 B 0.00 B да -UT360W- 01:00 2024-06-15
4 Аноним 130.0.47.117:24874 5.22 GB 1.31 GB 0.00 B да -UM1870- 01:06 2024-06-15
5 Аноним 77.34.121.194:6881 0.00 B 0.00 B 0.00 B да -qB4650- 00:40 2024-06-15
6 Аноним 79.139.134.168:58077 0.00 B 0.00 B 0.00 B да -UT360W- 00:46 2024-06-15
7 Аноним 10.70.41.31:33221 0.00 B 320.65 MB 1.24 GB нет -qB4390- 00:41 2024-06-15

Комментарии


Зарегистрируйтесь чтобы добавить комментарий
Торрент клиент
byTorrent - программа для загрузки торрент-файлов.

Скачать byTorrent.exe (1,5 МБ)

Скачать byTorrent.zip (0,6 МБ)

Поддержи torrent.by
российских рублей
(300 российских рублей это 4$)

Обратная связь rss

End game ©