↑↓torrent.by
Поиск
Логин:  Регистрация
Пароль:

Исповедь невидимки / Memoirs of an Invisible Man (1992) BDRip от New-Team | D

download Скачать торрент-файл   magnet Магнитная ссылка Размер: 746.52 MB Добавлен: 2024-06-06 17:00
Пиры будут получены из сети DHT
Последний сидер был замечен 2024-06-06 21:06
Страна: США, Франция Производство: Alcor Films, Canal+ , Cornelius Productions, Regency Enterprises, Warner Bros. Pictures Жанр: фантастика, триллер, мелодрама, комедия Год выпуска: 1992 Продолжительность: 01:39:05 Перевод: Профессиональный (полное дублирование) Невафильм Оригинальная аудиодорожка: нет Cубтитры: нет Режиссер: Джон Карпентер / John Carpenter В ролях: Чеви Чейз, Дэрил Ханна, Сэм Нил, Майкл МакКин, Стивен Тоболовски, Джим Нортон, Пэт Скиппер, Пол Перри, Ричард Эпкар, Стив Барр... Подробнее об актерах Описание: В результате взрыва в научной лаборатории главный герой фильма становится невидимым. Это переворачивает всю его жизнь; циничные сотрудники ЦРУ начинают охоту на него, однако с помощью очаровательной подружки ему удается выйти победителем из схватки с негодяями… Исходник: BDRemux 1080p Тип релиза: BDRip Контейнер: AVI Видео: 720x304 (2,35:1), 23,976 кадра/сек, XviD 73 ~ 852 кбит/сек, 0.217 бит/пиксель Аудио: 48 кГц, Dolby Digital AC3 2.0, 192 кбит/сек Раздача от:
[+] MediaInfo Общее Полное имя : Исповедь невидимки.1992.BDRip__by_AVP_Studio.avi Формат : AVI Формат/Информация : Audio Video Interleave Настройки формата : BitmapInfoHeader / WaveFormatEx Размер файла : 747 Мбайт Продолжительность : 1 ч. 39 м. Общий поток : 1 053 Кбит/сек Частота кадров : 23,976 кадра/сек Программа кодирования : VirtualDubMod 1.5.10.3 | www.virtualdub-fr.org || (build 2550/release) Библиотека кодирования : VirtualDubMod build 2550/release Видео Идентификатор : 0 Формат : MPEG-4 Visual Профиль формата : Advanced Simple@L5 Настройки формата : BVOP1 / Custom Matrix Параметр BVOP формата : 1 Параметр QPel формата : Нет Параметр GMC формата : Без точки перехода Параметр матрицы формата : Выборочная Идентификатор кодека : XVID Идентификатор кодека/Подсказка : XviD Продолжительность : 1 ч. 39 м. Битрейт : 852 Кбит/сек Ширина : 720 пикселей Высота : 304 пикселя Соотношение сторон : 2,35:1 Частота кадров : 23,976 (24000/1001) кадра/сек Цветовое пространство : YUV Субдискретизация насыщенности : 4:2:0 Битовая глубина : 8 бит Тип развёртки : Прогрессивная Метод сжатия : С потерями Бит/(Пиксели*Кадры) : 0.162 Размер потока : 604 Мбайт (81%) Библиотека кодирования : XviD 73 Аудио Идентификатор : 1 Формат : AC-3 Формат/Информация : Audio Coding 3 Коммерческое название : Dolby Digital Идентификатор кодека : 2000 Продолжительность : 1 ч. 39 м. Вид битрейта : Постоянный Битрейт : 192 Кбит/сек Каналы : 2 канала Channel layout : L R Частота : 48,0 КГц Частота кадров : 31,250 кадров/сек (1536 SPF) Метод сжатия : С потерями Размер потока : 136 Мбайт (18%) Выравнивание : Разделение по промежуткам Продолжительность промежутка : 42 мс. (1,00 видеокадр) Время предзагрузки промежутка : 500 мс
[+] Скриншоты

Всего файлов в раздаче: 1 
Исповедь невидимки.1992.BDRip_[New-team]_by_AVP_Studio.avi746.52 MB

Похожие раздачи по запросу - Исповедь
2023-10-03 magnet Исповедь об отдыхе в летнем лагере / Confessions from a Holiday Camp (1977) DVDRip-AVC от ExKinoRay | L1 1.96 GB ↑ 0 ↓ 0
2023-01-30 magnet Исповедь киллера / Confessions (2022) HDRip | Jaskier 747.65 MB ↑ 0 ↓ 0

Кто качает (только для создателя раздачи и модераторов): Локальные пиры отсутствуют

Комментарии


Зарегистрируйтесь чтобы добавить комментарий
Торрент клиент
byTorrent - программа для загрузки торрент-файлов.

Скачать byTorrent.exe (1,5 МБ)

Скачать byTorrent.zip (0,6 МБ)

Поддержи torrent.by
российских рублей
(300 российских рублей это 4$)

Обратная связь rss

End game ©