↑↓torrent.by
Поиск
Логин:  Регистрация
Пароль:

Всемирный потоп / The End We Start From (2023) WEB-DLRip от New-Team | D

download Скачать торрент-файл   magnet Магнитная ссылка Размер: 1.46 GB Добавлен: 2024-06-06 17:00
Пиры будут получены из сети DHT
Последний сидер был замечен 2024-06-17 23:51
Всемирный потоп / The End We Start From Год выпуска: 2023 Выпущено: Великобритания / Anton, BBC Film, BFI Film Fund, C2 Motion Picture Group, Hera Pictures Жанр: драма, триллер Режиссер: Махалия Бело / Mahalia Belo В ролях: Джоди Комер, Джоэль Фрай, Кэтрин Уотерстон, Бенедикт Камбербэтч, Марк Стронг, Джина Макки, Нина Сосанья, Ив Рассу, Раманике Ахлувалиа, Нил Белл О фильме: Англию настигает наводнение невиданных масштабов. В Лондоне вода постепенно проникает в дом беременной женщины, и она с трудом успевает добраться до больницы, где рожает долгожданного ребёнка. Но и здесь становится небезопасно. Женщина вместе с младенцем и мужем переезжают за город в дом его родителей. Но вскоре трагические обстоятельства разлучают супругов, а мать и дитя пытаются выжить в диких условиях нового мира. Продолжительность: 01:41:38 Перевод: Профессиональный (полное дублирование) | Paragraph Media Субтитры: Русские (forced, full), английские Раздача от: Автор релиза: JNS82. Формат: AVI Качество: WEB-DLRip Видео: 720x304 (2.35:1), 23.976 fps, XviD MPEG-4 ~ 1603 kbps avg, 0.305 bit/pixel, build 74 Аудио: 48 kHz, AC3 Dolby Digital, 3/2 (L,C,R,l,r) + LFE ch, ~ 448 kbps | RUS |
[+] MediaInfoОбщее Полное имя : D:TorrentsThe.End.We.Start.From.2023.WEB-DLRip_от New-Team_by_JNS82The.End.We.Start.From.2023.WEB-DLRip_от New-Team_by_JNS82.avi Формат : AVI Формат/Информация : Audio Video Interleave Размер файла : 1,46 Гбайт Продолжительность : 1 ч. 41 м. Общий поток : 2 060 Кбит/сек Программа кодирования : VirtualDubMod 1.5.10.2 (build 2540/release) Библиотека кодирования : VirtualDubMod build 2540/release Видео Идентификатор : 0 Формат : MPEG-4 Visual Профиль формата : Advanced Simple@L5 Настройки формата : BVOP1 / Custom Matrix Параметр BVOP формата : 1 Параметр QPel формата : Нет Параметр GMC формата : Без точки перехода Параметр матрицы формата : Выборочная Идентификатор кодека : XVID Идентификатор кодека/Подсказка : XviD Продолжительность : 1 ч. 41 м. Битрейт : 1 603 Кбит/сек Ширина : 720 пикселей Высота : 304 пикселя Соотношение сторон : 2,35:1 Частота кадров : 23,976 (24000/1001) кадра/сек Цветовое пространство : YUV Субдискретизация насыщенности : 4:2:0 Битовая глубина : 8 бит Тип развёртки : Прогрессивная Метод сжатия : С потерями Бит/(Пиксели*Кадры) : 0.305 Размер потока : 1,14 Гбайт (78%) Библиотека кодирования : XviD 74 Аудио Идентификатор : 1 Формат : AC-3 Формат/Информация : Audio Coding 3 Коммерческое название : Dolby Digital Идентификатор кодека : 2000 Продолжительность : 1 ч. 41 м. Вид битрейта : Постоянный Битрейт : 448 Кбит/сек Каналы : 6 каналов Channel layout : L R C LFE Ls Rs Частота : 48,0 КГц Частота кадров : 31,250 кадров/сек (1536 SPF) Метод сжатия : С потерями Размер потока : 326 Мбайт (22%) Выравнивание : Разделение по промежуткам Продолжительность промежутка : 42 мс. (1,00 видеокадр) Время предзагрузки промежутка : 500 мс. Service kind : Complete Main

Всего файлов в раздаче: 4 
The.End.We.Start.From.2023.WEB-DLRip_от New-Team_by_JNS82.avi1.46 GB
The.End.We.Start.From.2023.WEB-DLRip_от New-Team_by_JNS82_[eng].srt61.07 kB
The.End.We.Start.From.2023.WEB-DLRip_от New-Team_by_JNS82_forced_[rus].srt2.09 kB
The.End.We.Start.From.2023.WEB-DLRip_от New-Team_by_JNS82_full_[rus].srt69.45 kB

Похожие раздачи по запросу - Всемирный
2024-06-07 magnet Всемирный потоп / The End We Start From (2023) WEB-DLRip-AVC | D, P 2.65 GB ↑ 4 ↓ 0
2024-06-07 magnet Всемирный потоп / The End We Start From (2023) WEB-DLRip-AVC от ExKinoRay | D 744.22 MB ↑ 0 ↓ 0
2024-06-07 magnet Всемирный потоп / The End We Start From (2023) WEB-DLRip 720p от DoMiNo & селезень | D 2.23 GB ↑ 0 ↓ 0
2024-06-07 magnet Всемирный потоп / The End We Start From (2023) WEB-DL 1080p от ELEKTRI4KA | D, P 7.74 GB ↑ 0 ↓ 0
2024-06-06 magnet Всемирный потоп / The End We Start From (2023) WEB-DL 1080p от EniaHD | D 7.15 GB ↑ 0 ↓ 0
2024-02-10 magnet Всемирный потоп / The End We Start From (2023) WEB-DLRip 720p от DoMiNo & селезень | P | NewStudio 1К2.46 GB ↑ 0 ↓ 0

Кто качает (только для создателя раздачи и модераторов): Локальные пиры отсутствуют

Комментарии


Зарегистрируйтесь чтобы добавить комментарий
Торрент клиент
byTorrent - программа для загрузки торрент-файлов.

Скачать byTorrent.exe (1,5 МБ)

Скачать byTorrent.zip (0,6 МБ)

Поддержи torrent.by
российских рублей
(300 российских рублей это 4$)

Обратная связь rss

End game ©