↑↓torrent.by
Поиск
Логин:  Регистрация
Пароль:

Антрацит: Тайны секты Экрен / Anthracite [01x01-04 из 06] (2024) WEB-DL 1080p | RuDub

download Скачать торрент-файл   magnet Магнитная ссылка Размер: 9.14 GB Добавлен: 2024-06-06 17:00
Пиры будут получены из сети DHT
Последний сидер был замечен 2024-06-06 19:01
Информация о фильме Название: Антрацит: Тайны секты Экрен Оригинальное название: Anthracite Год выхода: 2024 Жанр: Триллер, драма, криминал, детектив Режиссер: Жюлиус Берг В ролях: Атик, Ноэми Шмидт, Камиль Лу, Николя Годар, Жан-Марк Барр, Кад Мерад, Стефано Кассетти, Марианна Баслер, Венсан Ротье, Рафаэль Ферре, Лео Легран, Романа де Стабенрат, Роксана Арналь, Соланж Фрежан, Сулейман Тур О фильме: После пропажи журналиста старое дело вновь всплывает на поверхность. След тянется в маленькую горную деревушку, жизнь в которой отравлена сектой, тайнами и смертью. Страна: Франция Продолжительность: ~00:50:00 серия Перевод: Любительский (многоголосый закадровый) RuDub Файл Кодек: MKV Качество: WEB-DL 1080p Видео: AVC, 1920x1080 (16:9), 5004 kbps (0.097 b/px), 25,000 fps Звук: Аудио #1: AC3, 192 kbps (CBR), 48.0 KHz , 2 ch, Russian - RuDub Аудио #2: Е-AC3, 768 kbps (CBR), 48.0 KHz (16 bits), 6 ch, French Аудио #3: Е-AC3, 640 kbps (CBR), 48.0 KHz (16 bits), 6 ch, English Субтитры: Русские (Full), английские, французские РЕКЛАМЫ НЕТ
[+] MediaInfoОбщее Уникальный идентификатор : 11960149850733164337448145509114431440 (0x8FF70EA348B761D8D0A3A60DC97C7D0) Полное имя : E:СЕРИАЛЫAnthracite.S01E01.Still.on.Fire.1080p.mkv Формат : Matroska Версия формата : Version 4 Размер файла : 2,31 Гбайт Продолжительность : 50 м. 2 с. Режим общего битрейта : Переменный Общий поток : 6 607 Кбит/сек Частота кадров : 25,000 кадров/сек Дата кодирования : 2024-06-03 10:56:26 UTC Программа кодирования : mkvmerge v45.0.0 ('Heaven in Pennies') 64-bit Библиотека кодирования : libebml v1.3.10 + libmatroska v1.5.2 Видео Идентификатор : 1 Формат : AVC Формат/Информация : Advanced Video Codec Профиль формата : High@L4 Настройки формата : CABAC / 4 Ref Frames Параметр CABAC формата : Да Параметр RefFrames формата : 4 кадра Идентификатор кодека : V_MPEG4/ISO/AVC Продолжительность : 50 м. 2 с. Вид битрейта : Переменный Битрейт : 5 004 Кбит/сек Максимальный битрейт : 20,0 Мбит/сек Ширина : 1 920 пикселей Высота : 1 080 пикселей Соотношение сторон : 16:9 Режим частоты кадров : Постоянный Частота кадров : 25,000 кадров/сек Цветовое пространство : YUV Субдискретизация насыщенности : 4:2:0 Битовая глубина : 8 бит Тип развёртки : Прогрессивная Бит/(Пиксели*Кадры) : 0.097 Размер потока : 1,75 Гбайт (76%) Библиотека кодирования : x264 core 148 r2727 7d026e8 Настройки программы : cabac=1 / ref=4 / deblock=1:0:0 / analyse=0x3:0x111 / me=umh / subme=10 / psy=1 / psy_rd=1.00:0.00 / mixed_ref=1 / me_range=120 / chroma_me=1 / trellis=2 / 8x8dct=1 / cqm=0 / deadzone=21,11 / fast_pskip=1 / chroma_qp_offset=-2 / threads=6 / lookahead_threads=1 / sliced_threads=0 / nr=0 / decimate=1 / interlaced=0 / bluray_compat=0 / stitchable=1 / constrained_intra=0 / bframes=16 / b_pyramid=2 / b_adapt=2 / b_bias=0 / direct=3 / weightb=1 / open_gop=0 / weightp=2 / keyint=250 / keyint_min=126 / scenecut=0 / intra_refresh=0 / rc_lookahead=250 / rc=crf / mbtree=1 / crf=19.0 / qcomp=0.50 / qpmin=6 / qpmax=51 / qpstep=4 / vbv_maxrate=20000 / vbv_bufsize=25000 / crf_max=0.0 / nal_hrd=vbr / filler=0 / ip_ratio=1.40 / aq=1:0.80 Язык : French Default : Да Forced : Нет Аудио #1 Идентификатор : 2 Формат : AC-3 Формат/Информация : Audio Coding 3 Коммерческое название : Dolby Digital Идентификатор кодека : A_AC3 Продолжительность : 50 м. 2 с. Вид битрейта : Постоянный Битрейт : 192 Кбит/сек Каналы : 2 канала Channel layout : L R Частота : 48,0 КГц Частота кадров : 31,250 кадров/сек (1536 SPF) Метод сжатия : С потерями Размер потока : 68,7 Мбайт (3%) Заголовок : RuDub Язык : Russian Service kind : Complete Main Default : Да Forced : Нет Аудио #2 Идентификатор : 3 Формат : E-AC-3 JOC Формат/Информация : Enhanced AC-3 with Joint Object Coding Коммерческое название : Dolby Digital Plus with Dolby Atmos Идентификатор кодека : A_EAC3 Продолжительность : 50 м. 2 с. Вид битрейта : Постоянный Битрейт : 768 Кбит/сек Каналы : 6 каналов Channel layout : L R C LFE Ls Rs Частота : 48,0 КГц Частота кадров : 31,250 кадров/сек (1536 SPF) Метод сжатия : С потерями Размер потока : 275 Мбайт (12%) Язык : French Service kind : Complete Main Default : Нет Forced : Нет Complexity index : 16 Number of dynamic objects : 15 Bed channel count : 1 канал Bed channel configuration : LFE Аудио #3 Идентификатор : 4 Формат : E-AC-3 Формат/Информация : Enhanced AC-3 Коммерческое название : Dolby Digital Plus Идентификатор кодека : A_EAC3 Продолжительность : 50 м. 2 с. Вид битрейта : Постоянный Битрейт : 640 Кбит/сек Каналы : 6 каналов Channel layout : L R C LFE Ls Rs Частота : 48,0 КГц Частота кадров : 31,250 кадров/сек (1536 SPF) Метод сжатия : С потерями Размер потока : 229 Мбайт (10%) Язык : English Service kind : Complete Main Default : Нет Forced : Нет Текст #1 Идентификатор : 5 Формат : UTF-8 Идентификатор кодека : S_TEXT/UTF8 Идентификатор кодека/Информация : UTF-8 Plain Text Продолжительность : 47 м. 34 с. Битрейт : 86 бит/сек Частота кадров : 0,192 кадр/сек Count of elements : 548 Размер потока : 30,2 Кбайт (0%) Язык : Russian Default : Нет Forced : Нет Текст #2 Идентификатор : 6 Формат : UTF-8 Идентификатор кодека : S_TEXT/UTF8 Идентификатор кодека/Информация : UTF-8 Plain Text Продолжительность : 6 с. 640 мс. Битрейт : 136 бит/сек Частота кадров : 0,301 кадр/сек Count of elements : 2 Размер потока : 113 байт (0%) Заголовок : Forced Язык : French Default : Нет Forced : Нет Текст #3 Идентификатор : 7 Формат : UTF-8 Идентификатор кодека : S_TEXT/UTF8 Идентификатор кодека/Информация : UTF-8 Plain Text Продолжительность : 46 м. 22 с. Битрейт : 68 бит/сек Частота кадров : 0,206 кадр/сек Count of elements : 572 Размер потока : 23,4 Кбайт (0%) Язык : French Default : Нет Forced : Нет Текст #4 Идентификатор : 8 Формат : UTF-8 Идентификатор кодека : S_TEXT/UTF8 Идентификатор кодека/Информация : UTF-8 Plain Text Продолжительность : 47 м. 4 с. Битрейт : 82 бит/сек Частота кадров : 0,279 кадр/сек Count of elements : 787 Размер потока : 28,4 Кбайт (0%) Заголовок : SDH Язык : French Default : Нет Forced : Нет Текст #5 Идентификатор : 9 Формат : UTF-8 Идентификатор кодека : S_TEXT/UTF8 Идентификатор кодека/Информация : UTF-8 Plain Text Продолжительность : 47 м. 34 с. Битрейт : 61 бит/сек Частота кадров : 0,192 кадр/сек Count of elements : 548 Размер потока : 21,4 Кбайт (0%) Язык : English Default : Нет Forced : Нет Текст #6 Идентификатор : 10 Формат : UTF-8 Идентификатор кодека : S_TEXT/UTF8 Идентификатор кодека/Информация : UTF-8 Plain Text Продолжительность : 36 м. 27 с. Битрейт : 2 бит/сек Частота кадров : 0,010 кадр/сек Count of elements : 22 Размер потока : 659 байт (0%) Заголовок : Dub | Forced Язык : English Default : Нет Forced : Нет Текст #7 Идентификатор : 11 Формат : UTF-8 Идентификатор кодека : S_TEXT/UTF8 Идентификатор кодека/Информация : UTF-8 Plain Text Продолжительность : 47 м. 34 с. Битрейт : 72 бит/сек Частота кадров : 0,221 кадр/сек Count of elements : 632 Размер потока : 25,4 Кбайт (0%) Заголовок : Dub Язык : English Default : Нет Forced : Нет Текст #8 Идентификатор : 12 Формат : UTF-8 Идентификатор кодека : S_TEXT/UTF8 Идентификатор кодека/Информация : UTF-8 Plain Text Продолжительность : 48 м. 2 с. Битрейт : 85 бит/сек Частота кадров : 0,282 кадр/сек Count of elements : 813 Размер потока : 29,9 Кбайт (0%) Заголовок : Dub | SDH Язык : English Default : Нет Forced : Нет Меню 00:00:00.000 : en:Part 01 00:47:11.450 : en:Credits
[+] Скриншоты

Всего файлов в раздаче: 4 
Anthracite.S01E01.Still.on.Fire.1080p.mkv2.31 GB
Anthracite.S01E02.The.13th.Disciple.1080p.mkv2.19 GB
Anthracite.S01E03.Trust.No.One.1080p.mkv2.48 GB
Anthracite.S01E04.Levia.Borelis.1080p.mkv2.16 GB

Похожие раздачи по запросу - Антрацит
2024-06-12 magnet Антрацит: Тайны секты Экрен / Anthracite [S01] (2024) WEB-DLRip 720p от DoMiNo & селезень | RuDub 4.44 GB ↑ 1 ↓ 0
2024-06-10 magnet Антрацит: Тайны секты Экрен / Anthracite [S01] (2024) WEB-DL 1080p | RuDub 14.90 GB ↑ 0 ↓ 0

Кто качает (только для создателя раздачи и модераторов): Локальные пиры отсутствуют

Комментарии


Зарегистрируйтесь чтобы добавить комментарий
Торрент клиент
byTorrent - программа для загрузки торрент-файлов.

Скачать byTorrent.exe (1,5 МБ)

Скачать byTorrent.zip (0,6 МБ)

Поддержи torrent.by
российских рублей
(300 российских рублей это 4$)

Обратная связь rss

End game ©