↑↓torrent.by
Поиск
Логин:  Регистрация
Пароль:

Астрал. Шепот мертвых / Sunyi / Death Whisper (2019) WEB-DL 1080p | D

download Скачать торрент-файл   magnet Магнитная ссылка Размер: 3.92 GB Раздают: 0 Качают: 1 Добавлен: 2024-06-07 05:00
Пиры будут получены из сети DHT
Последний сидер был замечен 2024-06-07 15:32
Название: Астрал. Шепот мертвых Оригинальное название: Sunyi / Death Whisper Год выпуска: 2019 Жанр: Ужасы Выпущено: Индонезия, Южная Корея, CJ Entertainment, MD Pictures, Pichouse Films Режиссер: Ави Суряди В ролях: Аманда Роулз, Ангга Юнанда, Теуку Рызки, Арья Васко, Наоми Паулинда, Юник Присцилла, Верди Сулайман, Дайю Виджанто, Соня Алисса, Абарран Иссабо О фильме: Старшеклассники с особым цинизмом измываются в школе над новичком Алексом. Единственное спасение он видит в подружке Мэгги, такой же новенькой, как и он. В один «прекрасный» день Алекса принуждают принять участие в таинственном спиритическом сеансе, который, идет не по плану. Вскоре участники начинают погибать один за другим. Жуткие подробности происшествий держат в страхе всю школу, и только Алекс и Мэгги могут остановить потревоженных призраков. Продолжительность: 01:31:22 Перевод: Дублированный Качество: WEB-DL 1080p Формат: MKV Видео: MPEG-4 AVC, 5120 Кбит/с, 1920x804 Аудио: Русский, индонезийский (AAC, 6 ch, 512 Кбит/с) Субтитры: Русские (AI)
[+] MIGeneral Unique ID : 229525122936098350763453754156504131831 (0xACACEE44015ED0D43F2DDD16F99528F7) Complete name : E:Sunyi.2019.1080p.WEB-DL.mkv Format : Matroska Format version : Version 4 File size : 3.92 GiB Duration : 1 h 31 min Overall bit rate : 6 143 kb/s Encoded date : UTC 2024-06-06 17:10:23 Writing application : mkvmerge v62.0.0 ('Apollo') 64-bit Writing library : libebml v1.4.2 + libmatroska v1.6.4 Video ID : 1 Format : AVC Format/Info : Advanced Video Codec Format profile : High@L4 Format settings : CABAC / 4 Ref Frames Format settings, CABAC : Yes Format settings, Reference frames : 4 frames Codec ID : V_MPEG4/ISO/AVC Duration : 1 h 31 min Bit rate : 5 120 kb/s Width : 1 920 pixels Height : 804 pixels Display aspect ratio : 2.40:1 Frame rate mode : Constant Frame rate : 24.000 FPS Color space : YUV Chroma subsampling : 4:2:0 Bit depth : 8 bits Scan type : Progressive Bits/(Pixel*Frame) : 0.138 Stream size : 3.27 GiB (83%) Writing library : x264 core 152 r2854 e9a5903 Encoding settings : cabac=1 / ref=3 / deblock=1:0:0 / analyse=0x3:0x113 / me=hex / subme=7 / psy=1 / psy_rd=1.00:0.00 / mixed_ref=1 / me_range=16 / chroma_me=1 / trellis=1 / 8x8dct=1 / cqm=0 / deadzone=21,11 / fast_pskip=1 / chroma_qp_offset=-2 / threads=25 / lookahead_threads=4 / sliced_threads=0 / nr=0 / decimate=1 / interlaced=0 / bluray_compat=0 / constrained_intra=0 / bframes=6 / b_pyramid=2 / b_adapt=1 / b_bias=0 / direct=1 / weightb=1 / open_gop=0 / weightp=2 / keyint=48 / keyint_min=25 / scenecut=0 / intra_refresh=0 / rc_lookahead=40 / rc=2pass / mbtree=1 / bitrate=5120 / ratetol=1.0 / qcomp=0.60 / qpmin=0 / qpmax=69 / qpstep=4 / cplxblur=20.0 / qblur=0.5 / vbv_maxrate=7680 / vbv_bufsize=20480 / nal_hrd=none / filler=0 / ip_ratio=1.40 / aq=1:1.00 Default : Yes Forced : No Audio #1 ID : 2 Format : AAC LC Format/Info : Advanced Audio Codec Low Complexity Codec ID : A_AAC-2 Duration : 1 h 31 min Bit rate : 512 kb/s Channel(s) : 6 channels Channel layout : C L R Ls Rs LFE Sampling rate : 48.0 kHz Frame rate : 46.875 FPS (1024 SPF) Compression mode : Lossy Stream size : 335 MiB (8%) Language : Russian Default : Yes Forced : No Audio #2 ID : 3 Format : AAC LC Format/Info : Advanced Audio Codec Low Complexity Codec ID : A_AAC-2 Duration : 1 h 31 min Bit rate : 512 kb/s Channel(s) : 6 channels Channel layout : C L R Ls Rs LFE Sampling rate : 48.0 kHz Frame rate : 46.875 FPS (1024 SPF) Compression mode : Lossy Stream size : 335 MiB (8%) Language : Indonesian Default : No Forced : No Text ID : 4 Format : UTF-8 Codec ID : S_TEXT/UTF8 Codec ID/Info : UTF-8 Plain Text Duration : 1 h 26 min Bit rate : 49 b/s Count of elements : 832 Stream size : 31.4 KiB (0%) Language : Russian Default : No Forced : No
[+] Скриншоты

Всего файлов в раздаче: 1 
Sunyi.2019.1080p.WEB-DL.mkv3.92 GB

Похожие раздачи по запросу - Астрал
2024-06-07 magnet Астрал. Шепот мертвых / Sunyi / Death Whisper (2019) WEB-DLRip-AVC | D | Локализованный видеоряд 1.51 GB ↑ 2 ↓ 0

Кто качает (только для создателя раздачи и модераторов):
ПользовательIP:портОтдалПринялОстатокСидируетТоррент клиентОбновился
1 Аноним 165.65.105.95:35519 0.00 B 0.00 B 8589934592.00 GB нет -qB4390- 01:12 2024-06-15

Комментарии


Зарегистрируйтесь чтобы добавить комментарий
Торрент клиент
byTorrent - программа для загрузки торрент-файлов.

Скачать byTorrent.exe (1,5 МБ)

Скачать byTorrent.zip (0,6 МБ)

Поддержи torrent.by
российских рублей
(300 российских рублей это 4$)

Обратная связь rss

End game ©