↑↓torrent.by
Поиск
Логин:  Регистрация
Пароль:

Развод по расчёту [S01] (2024) HDTV 1080p от Files-x

download Скачать торрент-файл   magnet Магнитная ссылка Размер: 14.28 GB Добавлен: 2024-06-07 05:00
Пиры будут получены из сети DHT
Последний сидер был замечен 2024-06-07 05:00
Информация о фильме Оригинальное название: Развод по расчёту Год выхода: 2024 Жанр: Комедия, драма, мелодрама Режиссер: Александр Назаров (III) В ролях: Алина Алексеева, Степан Девонин, Нелли Уварова, Ирина Темичева, Ольга Прокофьева, Стефания Баушева-Муравьева, Вячеслав Чепурченко, Павел Артемьев, Жанна Эппле, Галина Безрук, Дмитрий Белоцерковский, Мария Павлова (III), Юлия Овчаренко, Мария Столярова О фильме: Супруги Степан и Катерина уже много лет они живут в двухкомнатной квартире в хрущевке вместе с дочерью Лизой и матерью Катерины Ольгой Григорьевной. Неожиданно выясняется, что у семьи есть шанс решить квартирный вопрос, да еще и за счет строительной компании, где они оба работают. Владелица фирмы Лариса хочет провести благотворительную акцию для матерей-одиночек и разыграть среди них десять бесплатных квартир... Страна: Россия Студия: Fresh Film Продолжительность: 13 x ~ 00:22:00 Перевод: Не требуется Файл Кодек: h.264 Качество: HDTV 1080p Видео: MPEG-4 AVC, ~ 6496 Кбит/с, 1920x1080, 25 кадр/с Звук: MP2, 2 ch, 192 Кбит/с
[+] Скриншоты
[+] MediaInfo General ID : 1 (0x1) Complete name : C:01.Развод по расчёту.s01.E01.(2024).HDTV.(1080р).by.Nicodem.Files-x.ts Format : MPEG-TS File size : 1.17 GiB Duration : 23mn 50s Overall bit rate : 7 038 Kbps Maximum Overall bit rate : 35.5 Mbps Video ID : 4113 (0x1011) Menu ID : 1 (0x1) Format : AVC Format/Info : Advanced Video Codec Format profile : High@L4.1 Format settings, CABAC : No Format settings, ReFrames : 3 frames Codec ID : 27 Duration : 23mn 50s Bit rate mode : Variable Bit rate : 6 496 Kbps Maximum bit rate : 40.0 Mbps Width : 1 920 pixels Height : 1 080 pixels Display aspect ratio : 16:9 Frame rate : 25.000 fps Color space : YUV Chroma subsampling : 4:2:0 Bit depth : 8 bits Scan type : Progressive Bits/(Pixel*Frame) : 0.125 Stream size : 1.08 GiB (92%) Language : English Audio ID : 4352 (0x1100) Menu ID : 1 (0x1) Format : MPEG Audio Format version : Version 1 Format profile : Layer 2 Codec ID : 4 Duration : 23mn 49s Bit rate mode : Constant Bit rate : 192 Kbps Channel(s) : 2 channels Sampling rate : 48.0 KHz Compression mode : Lossy Stream size : 32.7 MiB (3%)
Релиз от:

Всего файлов в раздаче: 13 
01.Развод по расчёту.s01.E01.(2024).HDTV.(1080р).by.Nicodem.Files-x.ts1.17 GB
02.Развод по расчёту.s01.E02.(2024).HDTV.(1080р).by.Nicodem.Files-x.ts1.11 GB
03.Развод по расчёту.s01.E03.(2024).HDTV.(1080р).by.Nicodem.Files-x.ts1.12 GB
04.Развод по расчёту.s01.E04.(2024).HDTV.(1080р).by.Nicodem.Files-x.ts1.08 GB
05.Развод по расчёту.s01.E05.(2024).HDTV.(1080р).by.Nicodem.Files-x.ts1.10 GB
06.Развод по расчёту.s01.E06.(2024).HDTV.(1080р).by.Nicodem.Files-x.ts1.06 GB
07.Развод по расчёту.s01.E07.(2024).HDTV.(1080р).by.Nicodem.Files-x.ts1.03 GB
08.Развод по расчёту.s01.E08.(2024).HDTV.(1080р).by.Nicodem.Files-x.ts1.10 GB
09.Развод по расчёту.s01.E09.(2024).HDTV.(1080р).by.Nicodem.Files-x.ts1.01 GB
10.Развод по расчёту.s01.E10.(2024).HDTV.(1080р).by.Nicodem.Files-x.ts1.19 GB
Показать все файлы

Похожие раздачи по запросу - Развод
2024-06-11 magnet Развод по расчёту [S01] (2024) WEBRip-AVC от Generalfilm | КПК 1.37 GB ↑ 0 ↓ 0
2024-06-10 magnet Развод по расчёту [S01] (2024) WEBRip от Files-x 1К3.69 GB ↑ 0 ↓ 0
2024-06-08 magnet Развод по расчёту [S01] (2024) WEBRip-AVC от Files-х 3.86 GB ↑ 1 ↓ 1
2024-06-07 magnet Развод по расчёту [S01] (2024) WEBRip 1080p 9.76 GB ↑ 0 ↓ 0
2024-06-07 magnet Развод по расчёту [01-13 из 13] (2024) IPTV 720p от ivandubskoj 4.98 GB ↑ 0 ↓ 0
2024-06-06 magnet Развод по расчёту [01х01-09 из 13] (2024) WEBRip-AVC от Files-х 2.65 GB ↑ 0 ↓ 0
2024-06-06 magnet Развод по расчёту [01-09 из 13] (2024) WEBRip 1080p 6.68 GB ↑ 0 ↓ 0

Комментарии


Зарегистрируйтесь чтобы добавить комментарий
Торрент клиент
byTorrent - программа для загрузки торрент-файлов.

Скачать byTorrent.exe (1,5 МБ)

Скачать byTorrent.zip (0,6 МБ)

Поддержи torrent.by
российских рублей
(300 российских рублей это 4$)

Обратная связь rss

End game ©