↑↓torrent.by
Поиск
Логин:  Регистрация
Пароль:

Обезумевший мир / World Gone Wild (1988) HDTVRip 720p | P2, A

download Скачать торрент-файл   magnet Магнитная ссылка Размер: 3.78 GB Добавлен: 2024-06-07 10:02
Пиры будут получены из сети DHT
Последний сидер был замечен 2024-06-10 15:25
Информация о фильме Название: Обезумевший мир Оригинальное название: World Gone Wild Год выхода: 1988 Жанр: фантастика, боевик Режиссер: Ли Х. Кацин В ролях: Брюс Дерн, Майкл Паре, Катрин Мэри Стюарт, Адам Энт, Энтони Джеймс, Рик Поделл, Джулиус Кэрри, Алан Аутри, Минди МакЭннан, Брайан Дж. Томпсон О фильме: В растерзанном ядерной войной вэйстлэнде 2087-го года, бывшим когда-то Соединенными Штатами Америки, вода по причине своей скудности ценится превыше всего. Изолированное поселение Лост Велс (Lost Wells) пережило холокост за счет того, что его обитатели тщательно оберегают источник чистой воды. Однако тихим земледельческим будням поселенцев приходит конец с появлением в деревне некоего зловещего культа - группы зомбированных юношей, ведомых психопатом Дереком, убивающих и зверствующих по его приказу. Жители селения не способны противостоять бандитам, и только бывший наемник Итан, проживающий в деревне, оказывает сопротиление. Дерек со своей зондер-командой покидает Лост Велс, но обещает скоро вернуться, чтобы довершить начатое. Единственной надеждой остается старый друг Итана Джордж, обитающий где-то в районе развалин города, лежащего вдалеке от деревни. Но даже он и его братья по оружию могут не выжить в этом свихнувшемся мире... Страна: США Студия: Apollo Pictures Продолжительность: 01:29:06 Перевод: Профессиональный двухголосый, закадровый ; Авторский Файл Формат: Matroska Качество: HDTVRip 720p Видео: AVC/H.264, 1280x720 (16:9); ~5500 Kbps; 25.000 fps; 0.239 bit/pixel Аудио 1: Russian; AC3; 48.0 KHz; 2ch; 192 Kbps DVO (НТВ+) Аудио 2: Russian; AC3; 48.0 KHz; 2ch; 192 Kbps AVO (Живов) Аудио 3: English; AC3; 48.0 KHz; 2ch; 192 Kbps (оригинал) Субтитры: отсутствуют Семпл
[+] Скриншоты
[+] MediaInfo
Format                      : Matroska
Format version              : Version 4 / Version 2
File size                   : 3.78 GiB
Duration                    : 1h 29mn
Overall bit rate            : 6 078 Kbps
Encoded date                : UTC 2016-09-07 06:25:05
Writing application         : mkvmerge v8.3.0 ('Over the Horizon') 64bit
Writing library             : libebml v1.3.1 + libmatroska v1.4.2
Attachments                 : poster.jpg

Video
ID                          : 1
Format                      : AVC
Format/Info                 : Advanced Video Codec
Format profile              : High@L4.1
Format settings, CABAC      : Yes
Format settings, ReFrames   : 9 frames
Codec ID                    : V_MPEG4/ISO/AVC
Duration                    : 1h 29mn
Bit rate                    : 5 500 Kbps
Width                       : 1 280 pixels
Height                      : 720 pixels
Display aspect ratio        : 16:9
Frame rate mode             : Constant
Frame rate                  : 25.000 fps
Color space                 : YUV
Chroma subsampling          : 4:2:0
Bit depth                   : 8 bits
Scan type                   : Progressive
Bits/(Pixel*Frame)          : 0.239
Stream size                 : 3.42 GiB (90%)
Writing library             : x264 core 148 r2638 7599210
Encoding settings           : cabac=1 / ref=9 / deblock=1:-3:-3 / analyse=0x3:0x133 / me=umh / subme=10 / psy=1 / psy_rd=1.00:0.50 / mixed_ref=1 / me_range=32 / chroma_me=1 / trellis=2 / 8x8dct=1 / cqm=0 / deadzone=21,11 / fast_pskip=0 / chroma_qp_offset=-4 / threads=6 / lookahead_threads=1 / sliced_threads=0 / nr=0 / decimate=0 / interlaced=0 / bluray_compat=0 / constrained_intra=0 / bframes=10 / b_pyramid=2 / b_adapt=2 / b_bias=0 / direct=3 / weightb=1 / open_gop=0 / weightp=2 / keyint=250 / keyint_min=25 / scenecut=40 / intra_refresh=0 / rc_lookahead=60 / rc=2pass / mbtree=0 / bitrate=5500 / ratetol=1.0 / qcomp=0.65 / qpmin=0 / qpmax=69 / qpstep=4 / cplxblur=20.0 / qblur=0.5 / vbv_maxrate=62500 / vbv_bufsize=78125 / nal_hrd=none / filler=0 / ip_ratio=1.40 / pb_ratio=1.30 / aq=1:1.00
Default                     : Yes
Forced                      : No

Audio #1
ID                          : 2
Format                      : AC-3
Format/Info                 : Audio Coding 3
Mode extension              : CM (complete main)
Format settings, Endianness : Big
Codec ID                    : A_AC3
Duration                    : 1h 29mn
Bit rate mode               : Constant
Bit rate                    : 192 Kbps
Channel(s)                  : 2 channels
Channel positions           : Front: L R
Sampling rate               : 48.0 KHz
Frame rate                  : 31.250 fps (1536 spf)
Compression mode            : Lossy
Stream size                 : 122 MiB (3%)
Title                       : DVO НТВ+
Language                    : Russian
Default                     : Yes
Forced                      : No

Audio #2
ID                          : 3
Format                      : AC-3
Format/Info                 : Audio Coding 3
Mode extension              : CM (complete main)
Format settings, Endianness : Big
Codec ID                    : A_AC3
Duration                    : 1h 29mn
Bit rate mode               : Constant
Bit rate                    : 192 Kbps
Channel(s)                  : 2 channels
Channel positions           : Front: L R
Sampling rate               : 48.0 KHz
Frame rate                  : 31.250 fps (1536 spf)
Compression mode            : Lossy
Stream size                 : 122 MiB (3%)
Title                       : AVO Юрий Живов
Language                    : Russian
Default                     : No
Forced                      : No

Audio #3
ID                          : 4
Format                      : AC-3
Format/Info                 : Audio Coding 3
Mode extension              : CM (complete main)
Format settings, Endianness : Big
Codec ID                    : A_AC3
Duration                    : 1h 29mn
Bit rate mode               : Constant
Bit rate                    : 192 Kbps
Channel(s)                  : 2 channels
Channel positions           : Front: L R
Sampling rate               : 48.0 KHz
Frame rate                  : 31.250 fps (1536 spf)
Compression mode            : Lossy
Stream size                 : 122 MiB (3%)
Language                    : English
Default                     : No
Forced                      : No
Релиз от: koharubiyori

Всего файлов в раздаче: 1 
World.Gone.Wild.1988.720p.HDTV.x264.mkv3.78 GB

Кто качает (только для создателя раздачи и модераторов): Локальные пиры отсутствуют

Комментарии


Зарегистрируйтесь чтобы добавить комментарий
Торрент клиент
byTorrent - программа для загрузки торрент-файлов.

Скачать byTorrent.exe (1,5 МБ)

Скачать byTorrent.zip (0,6 МБ)

Поддержи torrent.by
российских рублей
(300 российских рублей это 4$)

Обратная связь rss

End game ©