↑↓torrent.by
Поиск
Логин:  Регистрация
Пароль:

Всемирный потоп / The End We Start From (2023) WEB-DLRip-AVC от ExKinoRay | D

download Скачать торрент-файл   magnet Магнитная ссылка Размер: 744.22 MB Добавлен: 2024-06-07 11:00
Пиры будут получены из сети DHT
Последний сидер был замечен 2024-06-13 19:39
Информация о фильме Название: Всемирный потоп Оригинальное название: The End We Start From Год выпуска: 2023 Жанр: Драма, триллер Режиссер: Махалия Бело В ролях: Джоди Комер, Бенедикт Камбербэтч, Марк Стронг, Кэтрин Уотерстон, Джоэл Фрай, Джина МакКи, Александрия Райли, Нина Сосанья, Филлипа Пик, Раманик Ахлувалия, Нил Белл, Рут Хоррокс, Джэк Дэвис, Родди МакДермотт, Тео Барклем-Биггз, Софи Дюваль, Марио Вернацца О фильме: По мировому бестселлеру Меган Хантер. Англию настигает наводнение невиданных масштабов. В Лондоне вода постепенно проникает в дом беременной женщины, и она с трудом успевает добраться до больницы, где рожает долгожданного ребёнка. Но и здесь становится небезопасно. Женщина вместе с младенцем и мужем переезжают за город в дом его родителей. Но вскоре трагические обстоятельства разлучают супругов, а мать и дитя пытаются выжить в диких условиях нового мира. Страна: Великобритания Студия: Anton, BBC Film, BFI Film Fund, C2 Motion Picture Group, Hera Pictures Продолжительность: 01:41:38 Перевод: Дублированный | Paragraph Media Файл Формат: MKV Качество: WEB-DLRip-AVC Видео: MPEG-4 AVC, 786x328, 939 Кбит/с Аудио: AAC-HE, 2 ch, 84 Кбит/с Субтитры: Русские (Forced, 2 x Full)
[+] MIОбщее Уникальный идентификатор : 271205222353954995822475311239335416085 (0xCC0839D34F14914DFD73CD94EF4E9115) Полное имя : D:MOVIESThe.End.We.Start.From.2023.WEB-DLRip-AVC.ExKinoRay.mkv Формат : Matroska Версия формата : Version 4 Размер файла : 744 Мбайт Продолжительность : 1 ч. 41 мин. Общий битрейт : 1 023 Кбит/сек Частота кадров : 23,976 кадра/сек Дата кодирования : 2024-06-07 04:43:50 UTC Программа кодирования : mkvmerge v45.0.0 ('Heaven in Pennies') 64-bit Библиотека кодирования : libebml v1.3.10 + libmatroska v1.5.2 Видео Идентификатор : 1 Формат : AVC Формат/Информация : Advanced Video Codec Профиль формата : High@L4.1 Настройки формата : CABAC / 11 Ref Frames Параметр CABAC формата : Да Параметр RefFrames формата : 11 кадров Идентификатор кодека : V_MPEG4/ISO/AVC Продолжительность : 1 ч. 41 мин. Битрейт : 939 Кбит/сек Ширина : 786 пикселей Высота : 328 пикселей Соотношение сторон дисплея : 2,40:1 Режим частоты кадров : Постоянный Частота кадров : 23,976 (24000/1001) кадра/сек Цветовое пространство : YUV Цветовая субдискретизация : 4:2:0 Битовая глубина : 8 бит Тип развёртки : Прогрессивная Бит/(Пиксели*Кадры) : 0.152 Размер потока : 682 Мбайт (92%) Библиотека кодирования : x264 core 164 r3190 7ed753b Параметры библиотеки кодирования : cabac=1 / ref=11 / deblock=1:-2:-2 / analyse=0x3:0x133 / me=umh / subme=10 / psy=1 / psy_rd=1.05:0.12 / mixed_ref=1 / me_range=32 / chroma_me=1 / trellis=2 / 8x8dct=1 / cqm=0 / deadzone=21,11 / fast_pskip=0 / chroma_qp_offset=-3 / threads=6 / lookahead_threads=1 / sliced_threads=0 / nr=0 / decimate=0 / interlaced=0 / bluray_compat=0 / constrained_intra=0 / bframes=12 / b_pyramid=2 / b_adapt=2 / b_bias=0 / direct=3 / weightb=1 / open_gop=0 / weightp=2 / keyint=240 / keyint_min=23 / scenecut=40 / intra_refresh=0 / rc=2pass / mbtree=0 / bitrate=939 / ratetol=1.0 / qcomp=0.60 / qpmin=0 / qpmax=69 / qpstep=4 / cplxblur=20.0 / qblur=0.5 / ip_ratio=1.40 / pb_ratio=1.30 / aq=3:1.00 Язык : Английский По умолчанию : Да Принудительно : Нет Цветовой диапазон : Limited Основные цвета : BT.709 Характеристики трансфера : BT.709 Коэффициенты матрицы : BT.709 Аудио Идентификатор : 2 Формат : AAC LC SBR Формат/Информация : Advanced Audio Codec Low Complexity with Spectral Band Replication Коммерческое название : HE-AAC Настройки формата : Explicit Идентификатор кодека : A_AAC-2 Продолжительность : 1 ч. 41 мин. Битрейт : 84,0 Кбит/сек Канал(-ы) : 2 канала Расположение каналов : L R Частота дискретизации : 48,0 КГц Частота кадров : 23,438 кадра/сек (2048 SPF) Метод сжатия : С потерями Задержка видео : 31 мс. Размер потока : 61,1 Мбайт (8%) Язык : Русский По умолчанию : Да Принудительно : Нет Текст #1 Идентификатор : 3 Формат : UTF-8 Идентификатор кодека : S_TEXT/UTF8 Идентификатор кодека/Информация : UTF-8 Plain Text Продолжительность : 1 ч. 34 мин. Битрейт : 0 бит/сек Частота кадров : 0,001 кадр/сек Число элементов : 4 Размер потока : 277 байт (0%) Заголовок : Forced Язык : Русский По умолчанию : Да Принудительно : Да Текст #2 Идентификатор : 4 Формат : UTF-8 Идентификатор кодека : S_TEXT/UTF8 Идентификатор кодека/Информация : UTF-8 Plain Text Продолжительность : 1 ч. 36 мин. Битрейт : 53 бит/сек Частота кадров : 0,140 кадр/сек Число элементов : 808 Размер потока : 38,0 КиБ (0%) Заголовок : Full (Official) Язык : Русский По умолчанию : Нет Принудительно : Нет Текст #3 Идентификатор : 5 Формат : UTF-8 Идентификатор кодека : S_TEXT/UTF8 Идентификатор кодека/Информация : UTF-8 Plain Text Продолжительность : 1 ч. 34 мин. Битрейт : 54 бит/сек Частота кадров : 0,136 кадр/сек Число элементов : 767 Размер потока : 37,3 КиБ (0%) Заголовок : Full (Stirlooo) Язык : Русский По умолчанию : Нет Принудительно : Нет Меню 00:00:00.000 : en:Chapter 01 00:05:50.000 : en:Chapter 02 00:11:40.000 : en:Chapter 03 00:17:30.000 : en:Chapter 04 00:23:20.000 : en:Chapter 05 00:29:10.000 : en:Chapter 06 00:35:00.000 : en:Chapter 07 00:40:50.000 : en:Chapter 08 00:46:40.000 : en:Chapter 09 00:52:30.000 : en:Chapter 10 00:58:20.000 : en:Chapter 11 01:04:10.000 : en:Chapter 12 01:10:00.000 : en:Chapter 13 01:15:50.000 : en:Chapter 14 01:21:40.000 : en:Chapter 15 01:27:30.000 : en:Chapter 16 01:33:20.000 : en:Chapter 17 01:39:10.000 : en:Chapter 18
[+] Скриншоты

Всего файлов в раздаче: 1 
The.End.We.Start.From.2023.WEB-DLRip-AVC.ExKinoRay.mkv744.22 MB

Похожие раздачи по запросу - Всемирный
2024-06-07 magnet Всемирный потоп / The End We Start From (2023) WEB-DLRip-AVC | D, P 2.65 GB ↑ 3 ↓ 0
2024-06-07 magnet Всемирный потоп / The End We Start From (2023) WEB-DLRip 720p от DoMiNo & селезень | D 2.23 GB ↑ 0 ↓ 0
2024-06-07 magnet Всемирный потоп / The End We Start From (2023) WEB-DL 1080p от ELEKTRI4KA | D, P 7.74 GB ↑ 0 ↓ 1
2024-06-06 magnet Всемирный потоп / The End We Start From (2023) WEB-DL 1080p от EniaHD | D 7.15 GB ↑ 0 ↓ 0
2024-06-06 magnet Всемирный потоп / The End We Start From (2023) WEB-DLRip от New-Team | D 1.46 GB ↑ 0 ↓ 0
2024-02-10 magnet Всемирный потоп / The End We Start From (2023) WEB-DLRip 720p от DoMiNo & селезень | P | NewStudio 1К2.46 GB ↑ 0 ↓ 0

Комментарии


Зарегистрируйтесь чтобы добавить комментарий
Торрент клиент
byTorrent - программа для загрузки торрент-файлов.

Скачать byTorrent.exe (1,5 МБ)

Скачать byTorrent.zip (0,6 МБ)

Поддержи torrent.by
российских рублей
(300 российских рублей это 4$)

Обратная связь rss

End game ©