↑↓torrent.by
Поиск
Логин:  Регистрация
Пароль:

Всемирный потоп / The End We Start From (2023) WEB-DLRip-AVC | D, P

download Скачать торрент-файл   magnet Магнитная ссылка Размер: 2.65 GB Раздают: 7 Качают: 0 Добавлен: il68k 2024-06-07 12:42
Пиры будут получены из сети DHT
Последний сидер был замечен сегодня в 21:05
Информация о фильме Название: Всемирный потоп Оригинальное название: The End We Start From Год выхода: 2023 Жанр: драма, триллер Режиссер: Махалия Бело В ролях: Джоди Комер, Джоэль Фрай, Кэтрин Уотерстон, Бенедикт Камбербэтч, Марк Стронг, Джина Макки, Нина Сосанья, Ив Рассу, Раманике Ахлувалиа, Нил Белл, Филлипа Пик, Джейк Дейвис, Александрия Райли О фильме: Англию настигает наводнение невиданных масштабов. В Лондоне вода постепенно проникает в дом беременной женщины, и она с трудом успевает добраться до больницы, где рожает долгожданного ребёнка. Однако и здесь становится небезопасно. Женщина вместе с младенцем и мужем переезжают за город в дом его родителей. Но вскоре трагические обстоятельства разлучают супругов, а мать и дитя пытаются выжить в диких условиях нового мира. Страна: Великобритания Студия: Anton, BBC Film, BFI Film Fund, C2 Motion Picture Group, Hera Pictures Продолжительность: 01:41:38 Перевод 1: Профессиональный (дублированный) | Paragraph Media Перевод 2: Профессиональный (многоголосый закадровый) | NewStudio Файл Кодек: H.264 Качество: WEB-DLRip-AVC Видео: MPEG-4 AVC, 2455 Кbps, 1024x426 (2.40:1), 23.976 fps, 0.235 bit/pixel, High@L4.1 Звук 1: 48 kHz, AC3 Dolby Digital, 3/2 (L, C, R, l, r) + LFE ch, ~448 kbps | Paragraph Media Звук 2: 48 kHz, AC3 Dolby Digital, 3/2 (L, C, R, l, r) + LFE ch, ~384 kbps | NewStudio Звук 3: 48 kHz, AC3 Dolby Digital, 3/2 (L, C, R, l, r) + LFE ch, ~448 kbps | Английский Субтитры: русские (forced, 2 x full), английские (full, SDH) Семпл
[+] Скриншоты
[+] MediaInfo raw : 1024x426p 1:1 @ 24000/1001 fps (cfr) x264 : using SAR=1/1 x264 : using cpu capabilities: MMX2 SSE2Fast SSSE3 SSE4.2 AVX FMA3 BMI2 AVX2 x264 : profile High, level 4.1, 4:2:0, 8-bit x264 : frame I:828 Avg QP:14.96 size: 62465 x264 : frame P:29908 Avg QP:16.76 size: 26021 x264 : frame B:115492 Avg QP:18.02 size: 9022 x264 : consecutive B-frames: 1.3% 2.8% 5.2% 20.3% 16.0% 37.0% 6.7% 5.0% 1.7% 1.0% 1.1% 2.0% x264 : mb I I16..4: 20.7% 60.6% 18.7% x264 : mb P I16..4: 2.2% 13.6% 1.5% P16..4: 29.6% 26.5% 17.9% 0.0% 0.0% skip: 8.8% x264 : mb B I16..4: 0.1% 1.3% 0.1% B16..8: 37.2% 15.3% 5.0% direct: 6.1% skip:34.8% L0:45.3% L1:42.5% BI:12.2% x264 : 8x8 transform intra:78.9% inter:47.3% x264 : coded y, uvDC, uvAC intra: 94.5% 79.6% 57.4% inter: 32.1% 20.4% 7.5% x264 : i16 v, h, dc, p: 24% 6% 33% 37% x264 : i8 v, h, dc, ddl, ddr, vr, hd, vl, hu: 10% 10% 16% 8% 11% 11% 11% 10% 13% x264 : i4 v, h, dc, ddl, ddr, vr, hd, vl, hu: 11% 7% 6% 9% 15% 14% 13% 11% 12% x264 : i8c dc, h, v, p: 46% 26% 17% 11% x264 : Weighted P-Frames: Y:3.4% UV:1.9% x264 : ref P L0: 44.7% 10.3% 16.8% 5.2% 5.3% 3.1% 3.5% 1.6% 2.0% 1.3% 1.6% 1.1% 1.3% 1.0% 1.2% 0.0% x264 : ref B L0: 66.5% 12.6% 6.2% 3.3% 2.4% 2.1% 1.7% 1.1% 0.9% 0.9% 0.8% 0.8% 0.5% 0.2% x264 : ref B L1: 93.3% 6.7% x264 : kb/s:2455.43 x264 : encoded 146228 frames, 24.69 fps, 2455.44 kb/s ====================================================================== General Unique ID: 116838103781770314504041104303695120589 (0x57E63345047AFCF1DFB44A53E39CC8CD) Complete name: C:\Vsemirnyj.potop.2023.AMZN.WEB-DLRip.AVC.mkv Format: Matroska Format version: Version 4 File size: 2.65 GiB Duration: 1 h 41 min Overall bit rate: 3 738 kb/s Frame rate: 23.976 FPS Movie name: The End We Start From (2023) WEB-DLRip-AVC _ vitolinform Encoded date: 2024-06-06 23:11:17 UTC Writing application: mkvmerge v85.0 ('Shame For You') 64-bit Writing library: libebml v1.4.5 + libmatroska v1.7.1 Attachments: poster.png / log.log Video ID: 1 Format: AVC Format/Info: Advanced Video Codec Format profile: High@L4.1 Format settings: CABAC / 15 Ref Frames Format settings, CABAC: Yes Format settings, Reference frames: 15 frames Codec ID: V_MPEG4/ISO/AVC Duration: 1 h 41 min Bit rate: 2 455 kb/s Width: 1 024 pixels Height: 426 pixels Display aspect ratio: 2.40:1 Frame rate mode: Constant Frame rate: 23.976 (24000/1001) FPS Color space: YUV Chroma subsampling: 4:2:0 Bit depth: 8 bits Scan type: Progressive Bits/(Pixel*Frame): 0.235 Stream size: 1.74 GiB (66%) Title: Всемирный потоп / The End We Start From (2023) Writing library: x264 core 164 r3172 c1c9931 Encoding settings: cabac=1 / ref=15 / deblock=1:-3:-3 / analyse=0x3:0x113 / me=umh / subme=10 / psy=1 / psy_rd=1.00:0.15 / mixed_ref=1 / me_range=32 / chroma_me=1 / trellis=2 / 8x8dct=1 / cqm=0 / deadzone=21, 11 / fast_pskip=0 / chroma_qp_offset=-3 / threads=13 / lookahead_threads=3 / sliced_threads=0 / nr=0 / decimate=0 / interlaced=0 / bluray_compat=0 / constrained_intra=0 / bframes=11 / b_pyramid=2 / b_adapt=2 / b_bias=0 / direct=1 / weightb=1 / open_gop=0 / weightp=2 / keyint=250 / keyint_min=24 / scenecut=40 / intra_refresh=0 / rc_lookahead=40 / rc=crf / mbtree=0 / crf=18.0 / qcomp=0.60 / qpmin=0 / qpmax=69 / qpstep=4 / vbv_maxrate=50000 / vbv_bufsize=62500 / crf_max=0.0 / nal_hrd=none / filler=0 / ip_ratio=1.40 / pb_ratio=1.30 / aq=1:1.00 Language: English Default: Yes Forced: No Color range: Limited Color primaries: BT.709 Transfer characteristics: BT.709 Matrix coefficients: BT.709 Audio #1 ID: 2 Format: AC-3 Format/Info: Audio Coding 3 Commercial name: Dolby Digital Codec ID: A_AC3 Duration: 1 h 41 min Bit rate mode: Constant Bit rate: 448 kb/s Channel(s): 6 channels Channel layout: L R C LFE Ls Rs Sampling rate: 48.0 kHz Frame rate: 31.250 FPS (1536 SPF) Compression mode: Lossy Stream size: 325 MiB (12%) Title: Dub | PARAGRAPH MEDIA Language: Russian Service kind: Complete Main Default: Yes Forced: No AC3_metadata cmixlev: -3.0 dB surmixlev: -3 dB Audio #2 ID: 3 Format: AC-3 Format/Info: Audio Coding 3 Commercial name: Dolby Digital Codec ID: A_AC3 Duration: 1 h 41 min Bit rate mode: Constant Bit rate: 384 kb/s Channel(s): 6 channels Channel layout: L R C LFE Ls Rs Sampling rate: 48.0 kHz Frame rate: 31.250 FPS (1536 SPF) Compression mode: Lossy Stream size: 279 MiB (10%) Title: MVO - NewStudio Language: Russian Service kind: Complete Main Default: No Forced: No AC3_metadata cmixlev: -4.5 dB surmixlev: -6 dB Audio #3 ID: 4 Format: AC-3 Format/Info: Audio Coding 3 Commercial name: Dolby Digital Codec ID: A_AC3 Duration: 1 h 41 min Bit rate mode: Constant Bit rate: 448 kb/s Channel(s): 6 channels Channel layout: L R C LFE Ls Rs Sampling rate: 48.0 kHz Frame rate: 31.250 FPS (1536 SPF) Compression mode: Lossy Stream size: 326 MiB (12%) Title: English Language: English Service kind: Complete Main Default: No Forced: No AC3_metadata cmixlev: -3.0 dB surmixlev: -3 dB Text #1 ID: 5 Format: UTF-8 Codec ID: S_TEXT/UTF8 Codec ID/Info: UTF-8 Plain Text Duration: 1 h 34 min Bit rate: 0 b/s Frame rate: 0.001 FPS Count of elements: 4 Stream size: 277 Bytes (0%) Title: Forced Language: Russian Default: Yes Forced: No Text #2 ID: 6 Format: UTF-8 Codec ID: S_TEXT/UTF8 Codec ID/Info: UTF-8 Plain Text Duration: 1 h 34 min Bit rate: 54 b/s Frame rate: 0.136 FPS Count of elements: 767 Stream size: 37.3 KiB (0%) Title: Full | Subtitled by stirlooo Language: Russian Default: No Forced: No Text #3 ID: 7 Format: UTF-8 Codec ID: S_TEXT/UTF8 Codec ID/Info: UTF-8 Plain Text Duration: 1 h 36 min Bit rate: 53 b/s Frame rate: 0.140 FPS Count of elements: 808 Stream size: 38.0 KiB (0%) Title: Full | IVI Language: Russian Default: No Forced: No Text #4 ID: 8 Format: UTF-8 Codec ID: S_TEXT/UTF8 Codec ID/Info: UTF-8 Plain Text Duration: 1 h 33 min Bit rate: 38 b/s Frame rate: 0.159 FPS Count of elements: 894 Stream size: 26.2 KiB (0%) Title: Full Language: English Default: No Forced: No Text #5 ID: 9 Format: UTF-8 Codec ID: S_TEXT/UTF8 Codec ID/Info: UTF-8 Plain Text Duration: 1 h 34 min Bit rate: 51 b/s Frame rate: 0.211 FPS Count of elements: 1188 Stream size: 35.8 KiB (0%) Title: SDH Language: English Default: No Forced: No Menu 00:00:00.000: en:Chapter 01 00:05:50.000: en:Chapter 02 00:11:40.000: en:Chapter 03 00:17:30.000: en:Chapter 04 00:23:20.000: en:Chapter 05 00:29:10.000: en:Chapter 06 00:35:00.000: en:Chapter 07 00:40:50.000: en:Chapter 08 00:46:40.000: en:Chapter 09 00:52:30.000: en:Chapter 10 00:58:20.000: en:Chapter 11 01:04:10.000: en:Chapter 12 01:10:00.000: en:Chapter 13 01:15:50.000: en:Chapter 14 01:21:40.000: en:Chapter 15 01:27:30.000: en:Chapter 16 01:33:20.000: en:Chapter 17 01:39:10.000: en:Chapter 18
Rip by vitolinform

Всего файлов в раздаче: 1 
Vsemirnyj.potop.2023.AMZN.WEB-DLRip.AVC.mkv2.65 GB

Похожие раздачи по запросу - Всемирный
2024-06-07 magnet Всемирный потоп / The End We Start From (2023) WEB-DLRip-AVC от ExKinoRay | D 744.22 MB ↑ 0 ↓ 0
2024-06-07 magnet Всемирный потоп / The End We Start From (2023) WEB-DLRip 720p от DoMiNo & селезень | D 2.23 GB ↑ 0 ↓ 1
2024-06-07 magnet Всемирный потоп / The End We Start From (2023) WEB-DL 1080p от ELEKTRI4KA | D, P 7.74 GB ↑ 0 ↓ 4
2024-06-06 magnet Всемирный потоп / The End We Start From (2023) WEB-DL 1080p от EniaHD | D 7.15 GB ↑ 0 ↓ 1
2024-06-06 magnet Всемирный потоп / The End We Start From (2023) WEB-DLRip от New-Team | D 1.46 GB ↑ 0 ↓ 0
2024-02-10 magnet Всемирный потоп / The End We Start From (2023) WEB-DLRip 720p от DoMiNo & селезень | P | NewStudio 1К2.46 GB ↑ 0 ↓ 0

Комментарии


Зарегистрируйтесь чтобы добавить комментарий
Торрент клиент
byTorrent - программа для загрузки торрент-файлов.

Скачать byTorrent.exe (1,5 МБ)

Скачать byTorrent.zip (0,6 МБ)

Поддержи torrent.by
российских рублей
(300 российских рублей это 4$)

Обратная связь rss

End game ©