↑↓torrent.by
Поиск
Логин:  Регистрация
Пароль:

Бугимен. Царство мёртвых / Keullojet / The Closet (2020) BDRip 1080p | D

download Скачать торрент-файл   magnet Магнитная ссылка Размер: 12.64 GB Добавлен: 2024-06-07 17:00
Пиры будут получены из сети DHT
Последний сидер был замечен 2024-06-08 08:40
Информация о фильме Название: Бугимен. Царство мёртвых Оригинальное название: Keullojet / The Closet Год выхода: 2020 Жанр: ужасы Режиссер: Ким Гван-бин В ролях: Ха Джон-у, Ким Нам-гиль, Хо Юль, Ким Щи-а, Пак Сон-ун, Пак Чи-а, Щин Хён-бин, Ким Су-джин, Ким Ми-хва, Кан Щин-чхоль О фильме: Через полгода после смерти жены в автокатастрофе архитектор Сан-вон решет сменить обстановку и вместе с 11-летней дочкой И-ной переезжает в новый дом. Сам мужчина с тех пор страдает паническими атаками, а девочка замкнулась в себе. На новом месте дочь заметно оживает, и вскоре поглощенный неотложной работой отец решает отправить её в художественный лагерь. Из-за этого они ругаются, и вскоре И-на исчезает. Поиски и привлечение полиции не дают никаких результатов, когда к Сан-вону заявляется специалист по потустороннему, уверенный, что девочку забрал шкаф в её комнате. Страна: Корея Южная Студия: CJ Entertainment, Moonlight Film, Perfect Storm Film Продолжительность: 01:37:52 Перевод: Профессиональный (дублированный) Moygolos В русской аудиодорожке пережималась только заставка в начале фильма. Файл Качество: BDRip 1080p Видео: 1920x804 at 24 fps, MPEG-4 AVC, ~16600 kbps avg Аудио 1: 48 kHz, E-AC3, 3/2 (L,C,R,l,r) + LFE ch, ~384 kbps | Russian Аудио 2: 48 kHz, DTS, 3/2 (L,C,R,l,r) + LFE ch, ~1509 kbps avg | Korean Субтитры: русские (Forced, Full AI), английские, китайские Семпл
[+] Скриншоты
[+] MediaInfoОбщее Уникальный идентификатор : 308013079585864066354887120520152830794 (0xE7B9294C8323808F7F563813DA33534A) Полное имя : The.Closet.2020.1080p.BluRay.DTS.5.1.x264-EDPH_KYLE.mkv Формат : Matroska Версия формата : Version 4 Размер файла : 12,6 Гбайт Продолжительность : 1 ч. 37 мин. Общий битрейт : 18,5 Мбит/сек Частота кадров : 24,000 кадра/сек Название фильма : The.Closet.2020.1080p.BluRay.DTS.5.1.x264-EDPH_KYLE Дата кодирования : 2024-06-07 00:29:44 UTC Программа кодирования : mkvmerge v85.0 ('Shame For You') 64-bit Библиотека кодирования : libebml v1.4.5 + libmatroska v1.7.1 Видео Идентификатор : 1 Формат : AVC Формат/Информация : Advanced Video Codec Профиль формата : High@L4.1 Настройки формата : CABAC / 4 Ref Frames Параметр CABAC формата : Да Параметр RefFrames формата : 4 кадра Идентификатор кодека : V_MPEG4/ISO/AVC Продолжительность : 1 ч. 37 мин. Битрейт : 16,6 Мбит/сек Ширина : 1 920 пикселей Высота : 804 пикселя Соотношение сторон дисплея : 2,39:1 Режим частоты кадров : Постоянный Частота кадров : 24,000 кадра/сек Цветовое пространство : YUV Цветовая субдискретизация : 4:2:0 Битовая глубина : 8 бит Тип развёртки : Прогрессивная Бит/(Пиксели*Кадры) : 0.448 Размер потока : 11,3 Гбайт (90%) Библиотека кодирования : x264 core 160 r3007+53 ab26477 t_mod_New Параметры библиотеки кодирования : cabac=1 / ref=4 / deblock=1:-3:-3 / analyse=0x3:0x133 / me=umh / subme=11 / psy=1 / fade_compensate=0.00 / psy_rd=1.00:0.00 / mixed_ref=1 / me_range=64 / chroma_me=1 / trellis=2 / 8x8dct=1 / cqm=0 / deadzone=21,11 / fast_pskip=0 / chroma_qp_offset=-3 / threads=25 / lookahead_threads=6 / sliced_threads=0 / nr=0 / decimate=1 / interlaced=0 / bluray_compat=0 / constrained_intra=0 / fgo=0 / bframes=12 / b_pyramid=2 / b_adapt=2 / b_bias=0 / direct=3 / weightb=1 / open_gop=0 / weightp=2 / keyint=250 / keyint_min=24 / scenecut=40 / intra_refresh=0 / rc_lookahead=60 / rc=crf / mbtree=0 / crf=17.2000 / qcomp=0.70 / qpmin=0:0:0 / qpmax=69:69:69 / qpstep=4 / vbv_maxrate=62500 / vbv_bufsize=78125 / crf_max=0.0 / nal_hrd=none / filler=0 / ip_ratio=1.30 / pb_ratio=1.20 / aq=3:0.79 / aq-sensitivity=10.00 / aq-factor=1.00:1.00:1.00 / aq2=0 / aq3=0 По умолчанию : Да Принудительно : Нет Цветовой диапазон : Limited Основные цвета : BT.709 Коэффициенты матрицы : BT.709 Аудио #1 Идентификатор : 2 Формат : E-AC-3 Формат/Информация : Enhanced AC-3 Коммерческое название : Dolby Digital Plus Идентификатор кодека : A_EAC3 Продолжительность : 1 ч. 37 мин. Вид битрейта : Постоянный Битрейт : 384 Кбит/сек Канал(-ы) : 6 каналов Расположение каналов : L R C LFE Ls Rs Частота дискретизации : 48,0 КГц Частота кадров : 31,250 кадров/сек (1536 SPF) Метод сжатия : С потерями Размер потока : 269 Мбайт (2%) Заголовок : Russian Язык : Русский Вид сервиса : Complete Main По умолчанию : Да Принудительно : Нет Нормализация звука речи : -24 dB compr : 11.48 dB dmixmod : Lo/Ro ltrtcmixlev : -3.0 dB ltrtsurmixlev : -3.0 dB lorocmixlev : -3.0 dB lorosurmixlev : -3.0 dB dialnorm_Average : -24 dB dialnorm_Minimum : -24 dB dialnorm_Maximum : -24 dB Аудио #2 Идентификатор : 3 Формат : DTS Формат/Информация : Digital Theater Systems Идентификатор кодека : A_DTS Продолжительность : 1 ч. 37 мин. Вид битрейта : Постоянный Битрейт : 1 509 Кбит/сек Канал(-ы) : 6 каналов Расположение каналов : C L R Ls Rs LFE Частота дискретизации : 48,0 КГц Частота кадров : 93,750 кадра/сек (512 SPF) Битовая глубина : 24 бита Метод сжатия : С потерями Размер потока : 1,03 Гбайт (8%) Заголовок : Korean Язык : Корейский По умолчанию : Нет Принудительно : Нет Текст #1 Идентификатор : 4 Формат : UTF-8 Идентификатор кодека : S_TEXT/UTF8 Идентификатор кодека/Информация : UTF-8 Plain Text Продолжительность : 55 мин. 54 с. Битрейт : 0 бит/сек Частота кадров : 0,003 кадр/сек Число элементов : 10 Размер потока : 404 байта (0%) Заголовок : Forced Язык : Русский По умолчанию : Да Принудительно : Нет Текст #2 Идентификатор : 5 Формат : UTF-8 Идентификатор кодека : S_TEXT/UTF8 Идентификатор кодека/Информация : UTF-8 Plain Text Продолжительность : 1 ч. 33 мин. Битрейт : 51 бит/сек Частота кадров : 0,145 кадр/сек Число элементов : 816 Размер потока : 35,7 КиБ (0%) Заголовок : Russian, IVI AI Язык : Русский По умолчанию : Нет Принудительно : Нет Текст #3 Идентификатор : 6 Формат : UTF-8 Идентификатор кодека : S_TEXT/UTF8 Идентификатор кодека/Информация : UTF-8 Plain Text Продолжительность : 1 ч. 30 мин. Битрейт : 30 бит/сек Частота кадров : 0,138 кадр/сек Число элементов : 744 Размер потока : 20,1 КиБ (0%) Заголовок : English Язык : Английский По умолчанию : Нет Принудительно : Нет Текст #4 Идентификатор : 7 Формат : UTF-8 Идентификатор кодека : S_TEXT/UTF8 Идентификатор кодека/Информация : UTF-8 Plain Text Продолжительность : 1 ч. 30 мин. Битрейт : 30 бит/сек Частота кадров : 0,166 кадр/сек Число элементов : 902 Размер потока : 20,0 КиБ (0%) Заголовок : Chinese Язык : Китайский По умолчанию : Нет Принудительно : Нет Меню 00:00:00.000 : en:Chapter 01 00:03:03.875 : en:Chapter 02 00:08:58.250 : en:Chapter 03 00:14:46.875 : en:Chapter 04 00:18:54.208 : en:Chapter 05 00:25:27.292 : en:Chapter 06 00:29:57.000 : en:Chapter 07 00:36:37.417 : en:Chapter 08 00:41:02.208 : en:Chapter 09 00:47:26.625 : en:Chapter 10 00:55:44.958 : en:Chapter 11 01:06:55.833 : en:Chapter 12 01:12:36.333 : en:Chapter 13 01:18:45.958 : en:Chapter 14 01:26:42.250 : en:Chapter 15 01:34:00.000 : en:Chapter 16
[+] Сравнение с исходником
Релиз от: by Kyle

Всего файлов в раздаче: 1 
The.Closet.2020.1080p.BluRay.DTS.5.1.x264-EDPH_KYLE.mkv12.64 GB

Похожие раздачи по запросу - Бугимен
2024-06-08 magnet Бугимен. Царство мёртвых / Keullojet / The Closet (2020) BDRip от MegaPeer | D 1.45 GB ↑ 0 ↓ 0
2024-06-07 magnet Бугимен. Царство мёртвых / Шкаф / Keullojet / The Closet (2020) WEB-DLRip-AVC | D | Локализованный видеоряд 1.54 GB ↑ 1 ↓ 1
2024-06-07 magnet Бугимен. Царство мёртвых / Шкаф / Keullojet / The Closet (2020) WEB-DL 1080p | D 4.01 GB ↑ 0 ↓ 0
2023-10-29 magnet Бугимен / The Boogeyman [2023, ужасы, мистика, триллер, HDRip-AVC] Dub (MovieDalen) 1К1.46 GB ↑ 2 ↓ 0
2023-10-28 magnet Бугимен / The Boogeyman (2023) BDRip 1080p | D 10.61 GB ↑ 4 ↓ 1
2023-08-30 magnet Бугимен / The Boogeyman (2023) WEB-DLRip 720p от DoMiNo | Sub 2.02 GB ↑ 1 ↓ 0

Комментарии


Зарегистрируйтесь чтобы добавить комментарий
Торрент клиент
byTorrent - программа для загрузки торрент-файлов.

Скачать byTorrent.exe (1,5 МБ)

Скачать byTorrent.zip (0,6 МБ)

Поддержи torrent.by
российских рублей
(300 российских рублей это 4$)

Обратная связь rss

End game ©