↑↓torrent.by
Поиск
Логин:  Регистрация
Пароль:

Красные линии [01-05 из 06] (2024) WEBRip 1080p от ExKinoRay

download Скачать торрент-файл   magnet Магнитная ссылка Размер: 9.81 GB Добавлен: 2024-06-07 17:00
Пиры будут получены из сети DHT
Последний сидер был замечен 2024-06-08 20:42
Информация о фильме Название: Красные линии Год выхода: 2024 Жанр: Драма, триллер Режиссер: Гамлет Дульян В ролях: Полина Гагарина, Александра Флоринская, Илья Любимов, Ростислав Бершауэр, Алексей Маклаков, Сергей Бредюк, Тина Стойилкович, Евгений Писарев, Маша Бриш, Евгения Синицкая, Лиза Хапова, Елена Тышковская, Валентин Самохин О фильме: Популярный коуч Елена Берн, известная также как тетя Лена, принадлежит к тому типу женщин, которых невозможно забыть. На ее канал в соцсетях подписаны миллионы людей. Первое знакомство с этой героиней происходит в финальном сезоне проекта «Бывшие». Но действие спин-оффа разворачивается за три года до этих событий - когда Лена решает отправиться в Москву, мечтая издать свой роман и познакомиться с кумиром. Но расплата за успех и стремительный взлет бывает чрезмерно высока. Лене предстоит пережить абьюзивные отношения, которые с большим трудом удается разорвать, однако она тут же попадается на удочку кумира, став теперь уже его жертвой. Но все эти испытания лишь закаляют ее характер. Страна: Россия Студия: START, Yellow, Black & White Продолжительность: 5 х ~ 00:45:00 Язык: Русский Реклама: Отсутствует Файл Формат: MKV Качество: WEBRip 1080p Видео: MPEG-4 AVC, ~ 6000 Кбит/с, 1920x808, 25 кадр/с Звук: AC3, 2 ch, 256 Кбит/с (с цензурой) RUS Субтитры: Русские (полные)
[+] МИ General Unique ID : 191438235004168292900882280780889798700 (0x9005A9B5BFB2649F7CD755F68B27382C) Complete name : G:Krasnye.linii.S01.2024.WEB-DLRip.1080p.ExKinoRayKrasnye.linii.S01.E01.2024.WEB-DLRip.1080p.ExKinoRay.mkv Format : Matroska Format version : Version 4 File size : 1.94 GiB Duration : 44 min 23 s Overall bit rate : 6 259 kb/s Encoded date : UTC 2024-05-17 02:12:58 Writing application : mkvmerge v56.1.0 ('My Friend') 64-bit Writing library : libebml v1.4.2 + libmatroska v1.6.4 Video ID : 1 Format : AVC Format/Info : Advanced Video Codec Format profile : High@L4.1 Format settings : CABAC / 4 Ref Frames Format settings, CABAC : Yes Format settings, Reference frames : 4 frames Codec ID : V_MPEG4/ISO/AVC Duration : 44 min 23 s Bit rate : 6 000 kb/s Width : 1 920 pixels Height : 808 pixels Display aspect ratio : 2.40:1 Frame rate mode : Constant Frame rate : 25.000 FPS Color space : YUV Chroma subsampling : 4:2:0 Bit depth : 8 bits Scan type : Progressive Bits/(Pixel*Frame) : 0.155 Stream size : 1.86 GiB (96%) Writing library : x264 core 146 r2538 121396c Encoding settings : cabac=1 / ref=4 / deblock=1:-3:-3 / analyse=0x3:0x113 / me=umh / subme=11 / psy=1 / psy_rd=1.00:0.02 / mixed_ref=1 / me_range=32 / chroma_me=1 / trellis=2 / 8x8dct=1 / cqm=0 / deadzone=21,11 / fast_pskip=1 / chroma_qp_offset=-3 / threads=24 / lookahead_threads=10 / sliced_threads=0 / nr=0 / decimate=0 / interlaced=0 / bluray_compat=0 / constrained_intra=0 / bframes=4 / b_pyramid=2 / b_adapt=2 / b_bias=0 / direct=3 / weightb=1 / open_gop=0 / weightp=2 / keyint=250 / keyint_min=25 / scenecut=40 / intra_refresh=0 / rc_lookahead=60 / rc=2pass / mbtree=1 / bitrate=6000 / ratetol=1.0 / qcomp=0.60 / qpmin=0 / qpmax=69 / qpstep=4 / cplxblur=20.0 / qblur=0.5 / vbv_maxrate=14000 / vbv_bufsize=14000 / nal_hrd=none / filler=0 / ip_ratio=1.40 / aq=3:1.40 Language : Russian Default : Yes Forced : No Color range : Limited Color primaries : BT.709 Transfer characteristics : BT.709 Matrix coefficients : BT.709 Audio ID : 2 Format : AC-3 Format/Info : Audio Coding 3 Commercial name : Dolby Digital Codec ID : A_AC3 Duration : 44 min 23 s Bit rate mode : Constant Bit rate : 256 kb/s Channel(s) : 2 channels Channel layout : L R Sampling rate : 48.0 kHz Frame rate : 31.250 FPS (1536 SPF) Compression mode : Lossy Stream size : 81.3 MiB (4%) Language : Russian Service kind : Complete Main Default : Yes Forced : No Text ID : 3 Format : UTF-8 Codec ID : S_TEXT/UTF8 Codec ID/Info : UTF-8 Plain Text Duration : 41 min 1 s Bit rate : 84 b/s Frame rate : 0.162 FPS Count of elements : 399 Stream size : 25.5 KiB (0%) Language : Russian Default : No Forced : No
[+] Скриншоты
Релиз от:

Всего файлов в раздаче: 5 
Krasnye.linii.S01.E01.2024.WEB-DLRip.1080p.ExKinoRay.mkv1.94 GB
Krasnye.linii.S01.E02.2024.WEB-DLRip.1080p.ExKinoRay.mkv1.99 GB
Krasnye.linii.S01.E03.2024.WEB-DLRip.1080p.ExKinoRay.mkv1.92 GB
Krasnye.linii.S01.E04.2024.WEB-DLRip.1080p.ExKinoRay.mkv1.94 GB
Krasnye.linii.S01.E05.2024.WEB-DLRip.1080p.ExKinoRay.mkv2.01 GB

Похожие раздачи по запросу - Красные
2024-06-17 magnet Красные линии [S01] (2024) WEBRip-AVC от Generalfilm | КПК 1.20 GB ↑ 0 ↓ 0
2024-06-13 magnet Красные линии [S01] (2024) WEBRip-AVC от Files-х 3.39 GB ↑ 0 ↓ 0
2024-06-13 magnet Красные линии [S01] (2024) WEBRip 3.22 GB ↑ 0 ↓ 0
2024-06-13 magnet Красные линии [S01] (2024) WEBRip 1080p от ExKinoRay 11.82 GB ↑ 0 ↓ 0
2024-06-10 magnet Красные линии [01х01-05 из 06] (2024) WEBRip-AVC от Generalfilm | КПК 1017.71 MB ↑ 0 ↓ 0
2024-06-07 magnet Красные линии [01х01-05 из 06] (2024) WEBRip-AVC от Files-х 2.81 GB ↑ 0 ↓ 0
2024-06-06 magnet Красные линии [01-05 из 06] (2024) WEBRip 1080p 6.47 GB ↑ 0 ↓ 0

Комментарии


Зарегистрируйтесь чтобы добавить комментарий
Торрент клиент
byTorrent - программа для загрузки торрент-файлов.

Скачать byTorrent.exe (1,5 МБ)

Скачать byTorrent.zip (0,6 МБ)

Поддержи torrent.by
российских рублей
(300 российских рублей это 4$)

Обратная связь rss

End game ©