↑↓torrent.by
Поиск
Логин:  Регистрация
Пароль:

Акулы в Париже / Sous la Seine / Under Paris (2024) WEB-DLRip-AVC | КПК | D

download Скачать торрент-файл   magnet Магнитная ссылка Размер: 545.26 MB Добавлен: 2024-06-07 17:00
Пиры будут получены из сети DHT
Последний сидер был замечен 2024-06-13 01:51
Информация о фильме Название: Акулы в Париже Оригинальное название: Sous la Seine Год выхода: 2024 Жанр: ужасы, боевик, драма Режиссер: Ксавье Жанс В ролях: Беренис Бежо, Нассим Льес, Анаис Парельо, Иньяки Лартиг, Леа Левиан, Жюльен Жаку, Хосе Антонио Педроса Морено О фильме: В Сене появляется гигантская акула. Чтобы спасти Париж и гостей города от кровавой бани, пережившая утрату ученая вынуждена обратиться к своему трагическому прошлому. Страна: Франция Студия: Let Me Be Продолжительность: 01:43:56 Перевод: Профессиональный (дублированный) | Videofilm International Ltd. Файл Формат: MP4 Качество: WEB-DLRip 360p (исх. WEB-DL 1080p от EniaHD) Видео: High@L3.2, 640x360 (16:9), at 24.000 fps, 668 kbps Аудио: AAC LC SBR (HE-AAC), 48.0 kHz, 2 ch, ~64 kbps Субтитры: Russian (Forced, Full)
[+] MediaInfoGeneral Complete name : Under.Paris.2024.D.rus.WEB-DLRip.mp4 Format : MPEG-4 Format profile : Base Media Codec ID : isom (isom/avc1) File size : 545 MiB Duration : 1 h 43 min Overall bit rate mode : Variable Overall bit rate : 733 kb/s Encoded date : UTC 2024-06-06 07:06:01 Tagged date : UTC 2024-06-06 07:06:01 Video ID : 1 Format : AVC Format/Info : Advanced Video Codec Format profile : High@L3.2 Format settings : CABAC / 14 Ref Frames Format settings, CABAC : Yes Format settings, RefFrames : 14 frames Codec ID : avc1 Codec ID/Info : Advanced Video Coding Duration : 1 h 43 min Bit rate : 668 kb/s Maximum bit rate : 4 813 kb/s Width : 640 pixels Height : 360 pixels Display aspect ratio : 16:9 Frame rate mode : Constant Frame rate : 24.000 FPS Color space : YUV Chroma subsampling : 4:2:0 Bit depth : 8 bits Scan type : Progressive Bits/(Pixel*Frame) : 0.121 Stream size : 496 MiB (91%) Title : Sous la Seine Writing library : x264 core 133 r2334 a3ac64b Encoding settings : cabac=1 / ref=14 / deblock=1:0:0 / analyse=0x3:0x133 / me=umh / subme=10 / psy=1 / psy_rd=1.00:0.00 / mixed_ref=1 / me_range=32 / chroma_me=1 / trellis=2 / 8x8dct=1 / cqm=0 / deadzone=21,11 / fast_pskip=0 / chroma_qp_offset=-2 / threads=6 / lookahead_threads=1 / sliced_threads=0 / nr=0 / decimate=0 / interlaced=0 / bluray_compat=0 / constrained_intra=0 / bframes=10 / b_pyramid=2 / b_adapt=2 / b_bias=0 / direct=3 / weightb=1 / open_gop=0 / weightp=2 / keyint=240 / keyint_min=24 / scenecut=40 / intra_refresh=0 / rc=2pass / mbtree=0 / bitrate=668 / ratetol=1.0 / qcomp=0.80 / qpmin=0 / qpmax=69 / qpstep=4 / cplxblur=20.0 / qblur=0.5 / ip_ratio=1.10 / pb_ratio=1.40 / aq=1:1.00 Language : French Encoded date : UTC 2024-06-06 07:06:01 Tagged date : UTC 2024-06-06 07:06:17 Codec configuration box : avcC Audio ID : 2 Format : AAC LC SBR Format/Info : Advanced Audio Codec Low Complexity with Spectral Band Replication Commercial name : HE-AAC Format settings : Explicit Codec ID : mp4a-40-2 Duration : 1 h 43 min Bit rate mode : Variable Bit rate : 62.7 kb/s Maximum bit rate : 154 kb/s Channel(s) : 2 channels Channel layout : L R Sampling rate : 48.0 kHz Frame rate : 23.438 FPS (2048 SPF) Compression mode : Lossy Stream size : 46.6 MiB (9%) Title : DUB - Videofilm Ltd. Language : Russian Encoded date : UTC 2024-06-06 07:06:13 Tagged date : UTC 2024-06-06 07:06:17 Text #1 ID : 3 Format : Timed Text Codec ID : tx3g Duration : 1 h 8 min Bit rate mode : Variable Bit rate : 1 b/s Stream size : 727 Bytes (0%) Title : Forced Language : Russian Forced : No Encoded date : UTC 2024-06-06 07:06:17 Tagged date : UTC 2024-06-06 07:06:17 Text #2 ID : 4 Format : Timed Text Codec ID : tx3g Duration : 1 h 41 min Bit rate mode : Variable Bit rate : 72 b/s Stream size : 53.9 KiB (0%) Title : Full Language : Russian Forced : No Encoded date : UTC 2024-06-06 07:06:17 Tagged date : UTC 2024-06-06 07:06:17
[+] Скриншоты

Всего файлов в раздаче: 1 
Under.Paris.2024.D.rus.WEB-DLRip.mp4545.26 MB

Похожие раздачи по запросу - Акулы
2024-06-10 magnet Акулы в Париже / Sous la Seine / Under Paris (2024) WEB-DLRip-AVC | D 1.46 GB ↑ 14 ↓ 3
2024-06-09 magnet Акулы в Париже / Sous la Seine / Under Paris (2024) WEB-DLRip-AVC от ExKinoRay | D 745.72 MB ↑ 0 ↓ 0
2024-06-05 magnet Акулы в Париже / Sous la Seine / Under Paris (2024) WEB-DLRip от New-Team | D 1.46 GB ↑ 0 ↓ 0
2024-06-05 magnet Акулы в Париже / Sous la Seine / Under Paris (2024) WEB-DLRip 720p от DoMiNo & селезень | D 2.40 GB ↑ 0 ↓ 0
2024-06-05 magnet Акулы в Париже / Sous la Seine / Under Paris (2024) WEB-DL 1080p от EniaHD | D 5.04 GB ↑ 1 ↓ 13

Кто качает (только для создателя раздачи и модераторов): Локальные пиры отсутствуют

Комментарии


Зарегистрируйтесь чтобы добавить комментарий
Торрент клиент
byTorrent - программа для загрузки торрент-файлов.

Скачать byTorrent.exe (1,5 МБ)

Скачать byTorrent.zip (0,6 МБ)

Поддержи torrent.by
российских рублей
(300 российских рублей это 4$)

Обратная связь rss

End game ©