↑↓torrent.by
Поиск
Логин:  Регистрация
Пароль:

Кинчем — мое сокровище / Kincsem (2017) HDRip-AVC от DoMiNo & селезень | P | The Kitchen Russia

download Скачать торрент-файл   magnet Магнитная ссылка Размер: 2.18 GB Добавлен: 2024-06-07 17:00
Пиры будут получены из сети DHT
Последний сидер был замечен 2024-06-07 17:00
Информация о фильме Название: Кинчем — мое сокровище Оригинальное название: Kincsem Год выпуска: 2017 Жанр: Приключения, драма, мелодрама, исторический Режиссер: Габор Херенди / Gábor Herendi В ролях: Эрвин Надь, Андреа Петрик, Тибор Гашпар, Йожеф Дьябронка, Тамаш Керестеш, Эрнё Фекете, Петер Шерер, Зольтан Ратоти, Лехель Ковач, Залан Макранчи, Моника Бальшаи, Кати Лазар, Зольтан Шерешш, Зольтан Шнайдер, Янош Папп О фильме: История о борьбе в высших слоях общества Австрийской империи, просуществовавшей до 1867 года и позднее переродившейся в Австро-Венгрию. В центре событий — непримиримая борьба между венгерским аристократом Эрнё Блашковичем и офицером австрийской армии Отто фон Эттингеном. Блашковичу принадлежит легендарная скаковая лошадь по кличке Кинчем (в переводе с венгерского — «Моё сокровище»): она участвовала в 54 скачках и везде пришла первой, став европейской сенсацией. Однако Блашковичу как аристократу невыносимо зарабатывать на жизнь скачками. Также в него влюбляется своевольная дочь Эттингена Клара — типичная представительница только зарождающегося феномена эмансипированных женщин, стремящихся отвоевать у общества право на определение собственной судьбы. Выпущено: Венгрия, Café Film, SKYFILM Studio Ltd., DRP Продолжительность: 02:02:05 Перевод: Профессиональный (многоголосый, закадровый) | The Kitchen Russia / По заказу кинопоиск Субтитры: Русские (Full), английские, венгерские Файл Формат: Matroska Качество: HDRip-AVC Видео: 1024x428 at 24.000 fps, x264@L4.1, ~2110 kbps Аудио: AC3, 6 ch, ~448 kbps - | Русский | Формат субтитров: softsub (SRT) ***Рип от: -=DoMiNo=-
[+] M/Ix264 : frame I:1809 Avg QP:18.62 size: 61488 x264 : frame P:48241 Avg QP:20.51 size: 20985 x264 : frame B:125746 Avg QP:22.15 size: 6412 General Unique ID : 161072574300055641308568725821352913419 (0x792D730C4C4516985D1ED73FD6452A0B) Complete name : G:Kincsem.2017.MVO.x264.seleZen.mkv Format : Matroska Format version : Version 4 File size : 2.18 GiB Duration : 2 h 2 min Overall bit rate : 2 558 kb/s Movie name : Kincsem.2017.MVO.x264.seleZen Encoded date : UTC 2023-04-04 16:06:00 Writing application : mkvmerge v75.0.0 ('Goliath') 64-bit Writing library : libebml v1.4.4 + libmatroska v1.7.1 Cover : Yes Attachments : cover.jpg / small_cover.jpg Video ID : 1 Format : AVC Format/Info : Advanced Video Codec Format profile : High@L4.1 Format settings : CABAC / 12 Ref Frames Format settings, CABAC : Yes Format settings, Reference : 12 frames Codec ID : V_MPEG4/ISO/AVC Duration : 2 h 2 min Bit rate : 2 110 kb/s Width : 1 024 pixels Height : 428 pixels Display aspect ratio : 2.40:1 Frame rate mode : Constant Frame rate : 24.000 FPS Color space : YUV Chroma subsampling : 4:2:0 Bit depth : 8 bits Scan type : Progressive Bits/(Pixel*Frame) : 0.201 Stream size : 1.80 GiB (82%) Title : -=DoMiNo=- Writing library : x264 core 164 r3106+55M 24adf88 t_mod_New | by -=DoMiNo=- | X86_64] Encoding settings : cabac=1 / ref=12 / deblock=1:-2:-1 / analyse=0x3:0x133 / me=umh / subme=10 / psy=1 / fade_compensate=0.00 / psy_rd=1.01:0.02 / mixed_ref=1 / me_range=32 / chroma_me=1 / trellis=2 / 8x8dct=1 / cqm=0 / deadzone=21,11 / fast_pskip=0 / chroma_qp_offset=-3 / threads=17 / lookahead_threads=3 / sliced_threads=0 / nr=0 / decimate=0 / interlaced=0 / bluray_compat=0 / constrained_intra=0 / fgo=0 / bframes=10 / b_pyramid=2 / b_adapt=2 / b_bias=0 / direct=3 / weightb=1 / open_gop=0 / weightp=2 / keyint=240 / keyint_min=24 / scenecut=40 / intra_refresh=0 / rc_lookahead=60 / rc=2pass / mbtree=0 / bitrate=2110 / ratetol=1.0 / qcomp=0.70 / qpmin=0:0:0 / qpmax=69:69:69 / qpstep=4 / cplxblur=20.0 / qblur=0.5 / vbv_maxrate=50000 / vbv_bufsize=62500 / nal_hrd=none / filler=0 / ip_ratio=1.16 / pb_ratio=1.30 / aq=3:0.90 / aq-sensitivity=10.00 / aq-factor=1.00:1.00:1.00 / aq2=0 / aq3=0 Language : English Default : Yes Forced : No Audio ID : 2 Format : AC-3 Format/Info : Audio Coding 3 Commercial name : Dolby Digital Codec ID : A_AC3 Duration : 2 h 2 min Bit rate mode : Constant Bit rate : 448 kb/s Channel(s) : 6 channels Channel layout : L R C LFE Ls Rs Sampling rate : 48.0 kHz Frame rate : 31.250 FPS (1536 SPF) Compression mode : Lossy Stream size : 391 MiB (18%) Title : MVO_ Language : Russian Service kind : Complete Main Default : Yes Forced : Yes Text #1 ID : 3 Format : UTF-8 Codec ID : S_TEXT/UTF8 Codec ID/Info : UTF-8 Plain Text Duration : 1 h 54 min Bit rate : 49 b/s Frame rate : 0.139 FPS Count of elements : 954 Stream size : 41.5 KiB (0%) Title : Full Language : Russian Default : No Forced : No Text #2 ID : 4 Format : UTF-8 Codec ID : S_TEXT/UTF8 Codec ID/Info : UTF-8 Plain Text Duration : 1 h 54 min Bit rate : 31 b/s Frame rate : 0.139 FPS Count of elements : 960 Stream size : 26.4 KiB (0%) Title : Full Language : English Default : No Forced : No Text #3 ID : 5 Format : UTF-8 Codec ID : S_TEXT/UTF8 Codec ID/Info : UTF-8 Plain Text Duration : 1 h 55 min Bit rate : 33 b/s Frame rate : 0.128 FPS Count of elements : 883 Stream size : 27.8 KiB (0%) Title : Full Language : Hungarian Default : No Forced : No Text #4 ID : 6 Format : UTF-8 Codec ID : S_TEXT/UTF8 Codec ID/Info : UTF-8 Plain Text Duration : 1 h 55 min Bit rate : 36 b/s Frame rate : 0.138 FPS Count of elements : 950 Stream size : 31.0 KiB (0%) Title : SDH Language : Hungarian Default : No Forced : No Menu 00:00:00.000 : hu:00:00:00.000 00:00:34.542 : hu:00:00:34.542 00:03:45.542 : hu:00:03:45.542 00:07:04.417 : hu:00:07:04.417 00:08:40.209 : hu:00:08:40.209 00:11:40.417 : hu:00:11:40.417 00:13:17.292 : hu:00:13:17.292 00:13:53.251 : hu:00:13:53.251 00:15:21.417 : hu:00:15:21.417 00:18:07.209 : hu:00:18:07.209 00:18:53.251 : hu:00:18:53.251 00:21:00.418 : hu:00:21:00.418 00:23:04.418 : hu:00:23:04.418 00:24:04.876 : hu:00:24:04.876 00:25:40.960 : hu:00:25:40.960 00:27:07.293 : hu:00:27:07.293 00:28:44.710 : hu:00:28:44.710 00:31:04.001 : hu:00:31:04.001 00:33:29.502 : hu:00:33:29.502 00:35:05.585 : hu:00:35:05.585 00:37:45.168 : hu:00:37:45.168 00:38:52.210 : hu:00:38:52.210 00:41:37.377 : hu:00:41:37.377 00:42:04.669 : hu:00:42:04.669 00:44:40.335 : hu:00:44:40.335 00:46:35.419 : hu:00:46:35.419 00:47:47.752 : hu:00:47:47.752 00:49:41.919 : hu:00:49:41.919 00:51:47.127 : hu:00:51:47.127 00:54:43.253 : hu:00:54:43.253 00:57:19.336 : hu:00:57:19.336 00:58:20.294 : hu:00:58:20.294 01:01:11.920 : hu:01:01:11.920 01:02:36.586 : hu:01:02:36.586 01:04:52.378 : hu:01:04:52.378 01:06:49.628 : hu:01:06:49.628 01:10:09.045 : hu:01:10:09.045 01:13:16.129 : hu:01:13:16.129 01:14:12.795 : hu:01:14:12.795 01:15:36.170 : hu:01:15:36.170 01:18:10.212 : hu:01:18:10.212 01:20:26.587 : hu:01:20:26.587 01:23:21.546 : hu:01:23:21.546 01:24:50.296 : hu:01:24:50.296 01:25:57.337 : hu:01:25:57.337 01:27:29.546 : hu:01:27:29.546 01:28:22.296 : hu:01:28:22.296 01:29:24.838 : hu:01:29:24.838 01:30:23.963 : hu:01:30:23.963 01:30:48.004 : hu:01:30:48.004 01:34:44.963 : hu:01:34:44.963 01:36:31.088 : hu:01:36:31.088 01:37:01.880 : hu:01:37:01.880 01:40:35.546 : hu:01:40:35.546 01:42:57.880 : hu:01:42:57.880 01:43:46.380 : hu:01:43:46.380 01:44:40.463 : hu:01:44:40.463 01:46:20.422 : hu:01:46:20.422 01:46:43.630 : hu:01:46:43.630 01:49:50.255 : hu:01:49:50.255 01:51:53.255 : hu:01:51:53.255 01:54:38.964 : hu:01:54:38.964 01:55:18.464 : hu:01:55:18.464
Релиз: Присоединяйся к: Кликай на баннеры.

Всего файлов в раздаче: 1 
Kincsem.2017.MVO.x264.seleZen.mkv2.18 GB

Похожие раздачи по запросу - Кинчем
2024-06-07 magnet Кинчем — мое сокровище / Kincsem (2017) BDRip 720p от селезень | P | The Kitchen Russia 7.12 GB ↑ 0 ↓ 0

Комментарии


Зарегистрируйтесь чтобы добавить комментарий
Торрент клиент
byTorrent - программа для загрузки торрент-файлов.

Скачать byTorrent.exe (1,5 МБ)

Скачать byTorrent.zip (0,6 МБ)

Поддержи torrent.by
российских рублей
(300 российских рублей это 4$)

Обратная связь rss

End game ©