↑↓torrent.by
Поиск
Логин:  Регистрация
Пароль:

Годзилла и Конг: Новая империя / Godzilla x Kong: The New Empire (2024) BDRip-AVC от New-Team | D

download Скачать торрент-файл   magnet Магнитная ссылка Размер: 2.26 GB Добавлен: 2024-06-07 17:00
Пиры будут получены из сети DHT
Последний сидер был замечен вчера в 11:14
Годзилла и Конг: Новая империя / Godzilla x Kong: The New Empire Год выпуска: 2024 Выпущено: США, Австралия / Legendary Pictures, Screen Queensland, Warner Bros. Жанр: фантастика, боевик Режиссер: Адам Вингард / Adam Wingard В ролях: Ребекка Холл, Брайан Тайри Генри, Дэн Стивенс, Кэйли Хоттл, Алекс Фернс, Чэнь Фала, Рэйчел Хаус, Рональд Смик, Чантелл Джемисон, Грег Хаттон О фильме: Два древних титана, Годзилла и Конг, сражаются в эпической битве, пока люди разгадывают их происхождение и связь с тайнами Острова черепа. Продолжительность: 01:54:40 Перевод: #1: Профессиональный (полное дублирование) | Bravo Records Georgia / Movie Dubbing #2: Дублированный (неофициальный) | Red Head Sound Субтитры: Русские (forced, full), английские Раздача от: Автор релиза: JNS82. Формат: MKV Качество: BDRip-AVC Видео: MPEG-4 AVC, (2,40:1), 1024x428, 1800 Кбит/с, 23,976 fps Аудио 1: 48 kHz, AC3 Dolby Digital, 3/2 (L,C,R,l,r) + LFE ch, ~ 384 kbps | RUS | BRG / MD Аудио 2: 48 kHz, AC3 Dolby Digital, 2/0 (L,R) ch, ~ 192 kbps | RUS | RHS Аудио 3: 48 kHz, AC3 Dolby Digital, 3/2 (L,C,R,l,r) + LFE ch, ~ 448 kbps | ENG |
[+] MediaInfoОбщее Уникальный идентификатор : 38386446971224908985964448496852677925 (0x1CE0F5F4E5202255AB9AD25D52543525) Полное имя : D:TorrentsGodzilla.x.Kong.The.New.Empire.2024.BDRip-AVC_от New-Team_by_JNS82.mkv Формат : Matroska Версия формата : Version 4 Размер файла : 2,26 Гбайт Продолжительность : 1 ч. 54 м. Общий поток : 2 828 Кбит/сек Название фильма : Godzilla.x.Kong.The.New.Empire.2024.BDRip-AVC_от New-Team_by_JNS82 Дата кодирования : UTC 2024-06-07 08:13:53 Программа кодирования : mkvmerge v79.0 ('Funeral Pyres') 64-bit Библиотека кодирования : libebml v1.4.4 + libmatroska v1.7.1 Видео Идентификатор : 1 Формат : AVC Формат/Информация : Advanced Video Codec Профиль формата : High@L4.1 Настройки формата : CABAC / 12 Ref Frames Параметр CABAC формата : Да Параметр RefFrames формата : 12 кадров Идентификатор кодека : V_MPEG4/ISO/AVC Продолжительность : 1 ч. 54 м. Битрейт : 1 800 Кбит/сек Ширина : 1 024 пикселя Высота : 428 пикселей Соотношение сторон : 2,40:1 Режим частоты кадров : Постоянный Частота кадров : 23,976 (24000/1001) кадра/сек Цветовое пространство : YUV Субдискретизация насыщенности : 4:2:0 Битовая глубина : 8 бит Тип развёртки : Прогрессивная Бит/(Пиксели*Кадры) : 0.171 Размер потока : 1,44 Гбайт (64%) Библиотека кодирования : x264 core 164 r3156+57M NewTeam t_mod_New Настройки программы : cabac=1 / ref=12 / deblock=1:-3:-3 / analyse=0x3:0x133 / me=umh / subme=10 / psy=1 / fade_compensate=0.00 / psy_rd=1.03:0.07 / mixed_ref=1 / me_range=32 / chroma_me=1 / trellis=2 / 8x8dct=1 / cqm=0 / deadzone=21,11 / fast_pskip=0 / chroma_qp_offset=-3 / threads=13 / lookahead_threads=3 / sliced_threads=0 / nr=0 / decimate=0 / interlaced=0 / bluray_compat=0 / constrained_intra=0 / fgo=0 / bframes=10 / b_pyramid=2 / b_adapt=2 / b_bias=0 / direct=3 / weightb=1 / open_gop=0 / weightp=2 / keyint=240 / keyint_min=23 / scenecut=40 / intra_refresh=0 / rc_lookahead=60 / rc=2pass / mbtree=0 / bitrate=1800 / ratetol=1.0 / qcomp=0.60 / qpmin=0:0:0 / qpmax=69:69:69 / qpstep=4 / cplxblur=20.0 / qblur=0.5 / vbv_maxrate=50000 / vbv_bufsize=62500 / nal_hrd=none / filler=0 / ip_ratio=1.40 / pb_ratio=1.30 / aq=1:1.00 / aq-sensitivity=10.00 / aq-factor=1.00:1.00:1.00 / aq2=0 / aq3=0 Язык : English Default : Да Forced : Нет Аудио #1 Идентификатор : 2 Формат : AC-3 Формат/Информация : Audio Coding 3 Коммерческое название : Dolby Digital Идентификатор кодека : A_AC3 Продолжительность : 1 ч. 54 м. Вид битрейта : Постоянный Битрейт : 384 Кбит/сек Каналы : 6 каналов Channel layout : L R C LFE Ls Rs Частота : 48,0 КГц Частота кадров : 31,250 кадров/сек (1536 SPF) Метод сжатия : С потерями Размер потока : 315 Мбайт (14%) Заголовок : DUB - Bravo Records Georgia / Movie Dubbing Язык : Russian Service kind : Complete Main Default : Да Forced : Нет Аудио #2 Идентификатор : 3 Формат : AC-3 Формат/Информация : Audio Coding 3 Коммерческое название : Dolby Digital Идентификатор кодека : A_AC3 Продолжительность : 1 ч. 54 м. Вид битрейта : Постоянный Битрейт : 192 Кбит/сек Каналы : 2 канала Channel layout : L R Частота : 48,0 КГц Частота кадров : 31,250 кадров/сек (1536 SPF) Метод сжатия : С потерями Размер потока : 157 Мбайт (7%) Заголовок : DUB - Red Head Sound Язык : Russian Service kind : Complete Main Default : Нет Forced : Нет Аудио #3 Идентификатор : 4 Формат : AC-3 Формат/Информация : Audio Coding 3 Коммерческое название : Dolby Digital Идентификатор кодека : A_AC3 Продолжительность : 1 ч. 54 м. Вид битрейта : Постоянный Битрейт : 448 Кбит/сек Каналы : 6 каналов Channel layout : L R C LFE Ls Rs Частота : 48,0 КГц Частота кадров : 31,250 кадров/сек (1536 SPF) Метод сжатия : С потерями Размер потока : 367 Мбайт (16%) Заголовок : Original Язык : English Service kind : Complete Main Default : Нет Forced : Нет Текст #1 Идентификатор : 5 Формат : UTF-8 Идентификатор кодека : S_TEXT/UTF8 Идентификатор кодека/Информация : UTF-8 Plain Text Продолжительность : 1 ч. 43 м. Битрейт : 3 бит/сек Count of elements : 67 Размер потока : 2,85 Кбайт (0%) Заголовок : Язык : Russian Default : Да Forced : Нет Текст #2 Идентификатор : 6 Формат : UTF-8 Идентификатор кодека : S_TEXT/UTF8 Идентификатор кодека/Информация : UTF-8 Plain Text Продолжительность : 1 ч. 53 м. Битрейт : 52 бит/сек Count of elements : 825 Размер потока : 44,0 Кбайт (0%) Заголовок : Язык : Russian Default : Нет Forced : Нет Текст #3 Идентификатор : 7 Формат : UTF-8 Идентификатор кодека : S_TEXT/UTF8 Идентификатор кодека/Информация : UTF-8 Plain Text Продолжительность : 1 ч. 45 м. Битрейт : 38 бит/сек Count of elements : 955 Размер потока : 29,9 Кбайт (0%) Заголовок : Язык : English Default : Нет Forced : Нет Меню 00:00:00.000 : en:Chapter 01 00:09:36.367 : en:Chapter 02 00:18:34.864 : en:Chapter 03 00:30:42.966 : en:Chapter 04 00:38:47.492 : en:Chapter 05 00:49:01.939 : en:Chapter 06 01:00:24.037 : en:Chapter 07 01:10:13.835 : en:Chapter 08 01:19:26.887 : en:Chapter 09 01:28:07.699 : en:Chapter 10 01:38:40.540 : en:Chapter 11 01:46:38.726 : en:Chapter 12

Всего файлов в раздаче: 1 
Godzilla.x.Kong.The.New.Empire.2024.BDRip-AVC_от New-Team_by_JNS82.mkv2.26 GB

Похожие раздачи по запросу - Годзилла
2024-06-17 magnet Годзилла и Конг: Новая империя / Ґодзілла та Конґ: Нова імперія / Godzilla x Kong: The New Empire (2024) BDRip 1080p | D | UKR 16.33 GB ↑ 0 ↓ 0
2024-06-17 magnet Годзилла и Конг: Новая империя / Godzilla x Kong: The New Empire (2024) BDRip 1080p от Generalfilm | D 11.45 GB ↑ 0 ↓ 0
2024-06-13 magnet Годзилла: Минус один / Gojira -1.0 / Godzilla: Minus One (2023) BDRip-AVC от DoMiNo & селезень | D | Red Head Sound 746.14 MB ↑ 0 ↓ 0
2024-06-13 magnet Годзилла: Минус один / Gojira -1.0 / Godzilla: Minus One (2023) BDRip от MegaPeer | D | Red Head Sound 2.18 GB ↑ 0 ↓ 1
2024-06-13 magnet Годзилла: Минус один / Gojira -1.0 / Godzilla: Minus One (2023) BDRip 1080p от Scarabey | D | Red Head Sound 9.73 GB ↑ 1 ↓ 2
2024-06-13 magnet Годзилла: Минус один / Gojira -1.0 / Godzilla: Minus One (2023) BDRip-AVC от DoMiNo & селезень | D | Red Head Sound 1.79 GB ↑ 0 ↓ 0
2024-06-13 magnet Годзилла: Минус один / Gojira -1.0 / Godzilla: Minus One (2023) BDRip 720p от DoMiNo & селезень | D | Red Head Sound 4.46 GB ↑ 0 ↓ 0

Комментарии


Зарегистрируйтесь чтобы добавить комментарий
Торрент клиент
byTorrent - программа для загрузки торрент-файлов.

Скачать byTorrent.exe (1,5 МБ)

Скачать byTorrent.zip (0,6 МБ)

Поддержи torrent.by
российских рублей
(300 российских рублей это 4$)

Обратная связь rss

End game ©