↑↓torrent.by
Поиск
Логин:  Регистрация
Пароль:

Другой Франко / Інший Франко / Inshyi Franko (2022) WEB-DL 1080p | UKR

download Скачать торрент-файл   magnet Магнитная ссылка Размер: 2.57 GB Добавлен: 2024-06-08 11:00
Пиры будут получены из сети DHT
Последний сидер был замечен 2024-06-08 19:39
Информация о фильме Название: Другой Франко Оригинальное название: Inshyi Franko Год выхода: 2021 Жанр: драма, биография, история Режиссер: Игорь Висневский В ролях: Вячеслав Довженко, Ахтем Сеитаблаев, Андрей Фединчик, Надежда Левченко, Ирина Кудашова, Максим Донец, Олег Волощенко, Орест Гарда, Юрий Хвостенко, Всеволод Шекита О фильме: Июнь 1941, в имении Франко во Львове — неожиданный гость. Это старый друг Петра Франка — Андрей Грищук. Бок о бок — сквозь года и события. Они вместе стояли у истоков скаутской организации «Плас», они боролись за любовь одной женщины, два военных летчика, они спасались из горящего самолета, выбирались из плена, в советском Харькове не дали погибнуть от голода детям. Теперь мир — в огне Второй мировой. Кто и какую роль сыграет в истории? История дружбы, соперничества и любви. Страна: Украина Продолжительность: 01:30:18 Язык: Украинский Файл Кодек: x.264 Качество: WEB-DL 1080p Видео: AVC, 1920x1080 (16:9), 24.000 fps, 3516 kb/s Аудио : E-AC3, 48.0 kHz, 6 ch, 640 kb/s | UKR Субтитры: украинские, английские Трейлер
[+] MIGeneral Unique ID : 115149609476682381533260664639501120388 (0x56A10212AE940D8961EAE2362C4C3384) Complete name : Інший Франко (2021) WEB-DL 1080p .mkv Format : Matroska Format version : Version 4 File size : 2.57 GiB Duration : 1 h 30 min Overall bit rate : 4 071 kb/s Frame rate : 24.000 FPS Encoded date : 2024-05-29 11:58:10 UTC Writing application : mkvmerge v84.0 ('Sleeper') 64-bit Writing library : libebml v1.4.5 + libmatroska v1.7.1 Cover : Yes Attachments : cover.jpg Video ID : 1 Format : AVC Format/Info : Advanced Video Codec Format profile : High@L4 Format settings : CABAC / 1 Ref Frames Format settings, CABAC : Yes Format settings, Reference frames : 1 frame Format settings, GOP : M=1, N=24 Codec ID : V_MPEG4/ISO/AVC Duration : 1 h 30 min Bit rate mode : Constant Bit rate : 3 516 kb/s Width : 1 920 pixels Height : 1 080 pixels Display aspect ratio : 16:9 Frame rate mode : Constant Frame rate : 24.000 FPS Color space : YUV Chroma subsampling : 4:2:0 Bit depth : 8 bits Scan type : Progressive Bits/(Pixel*Frame) : 0.071 Stream size : 2.16 GiB (84%) Default : Yes Forced : No Color range : Limited Color primaries : BT.709 Transfer characteristics : BT.709 Matrix coefficients : BT.709 Audio ID : 2 Format : E-AC-3 Format/Info : Enhanced AC-3 Commercial name : Dolby Digital Plus Codec ID : A_EAC3 Duration : 1 h 30 min Bit rate mode : Constant Bit rate : 640 kb/s Channel(s) : 6 channels Channel layout : L R C LFE Ls Rs Sampling rate : 48.0 kHz Frame rate : 31.250 FPS (1536 SPF) Compression mode : Lossy Stream size : 413 MiB (16%) Language : Ukrainian Service kind : Complete Main Default : Yes Forced : No Dialog Normalization : -28 dB compr : -0.28 dB dialnorm_Average : -28 dB dialnorm_Minimum : -28 dB dialnorm_Maximum : -28 dB Text #1 ID : 3 Format : UTF-8 Codec ID : S_TEXT/UTF8 Codec ID/Info : UTF-8 Plain Text Duration : 1 h 25 min Bit rate : 67 b/s Frame rate : 0.180 FPS Count of elements : 930 Stream size : 42.5 KiB (0%) Language : Ukrainian Default : No Forced : No Text #2 ID : 4 Format : UTF-8 Codec ID : S_TEXT/UTF8 Codec ID/Info : UTF-8 Plain Text Duration : 1 h 26 min Bit rate : 41 b/s Frame rate : 0.167 FPS Count of elements : 872 Stream size : 26.5 KiB (0%) Language : English Default : No Forced : No
[+] Скриншоты

Всего файлов в раздаче: 1 
Інший Франко (2021) WEB-DL 1080p [Ukr] [Hurtom].mkv2.57 GB

Похожие раздачи по запросу - Другой
2024-05-29 magnet Ascold Flow - Релокант в другой мир [2 книги] (2024) МР3 889.64 MB ↑ 0 ↓ 0
2024-05-14 magnet Другой мир и сестра, которая убивает с одного удара / Isekai One Turn Kill Neesan: Ane Douhan no Iseka [S01] (2023) WEBRip 1080p | AniLibria 16.65 GB ↑ 0 ↓ 0

Кто качает (только для создателя раздачи и модераторов): Локальные пиры отсутствуют

Комментарии


Зарегистрируйтесь чтобы добавить комментарий
Торрент клиент
byTorrent - программа для загрузки торрент-файлов.

Скачать byTorrent.exe (1,5 МБ)

Скачать byTorrent.zip (0,6 МБ)

Поддержи torrent.by
российских рублей
(300 российских рублей это 4$)

Обратная связь rss

End game ©