↑↓torrent.by
Поиск
Логин:  Регистрация
Пароль:

Руслан и Людмила. Больше, чем сказка (2023) WEB-DLRip-AVC от ExKinoRay

download Скачать торрент-файл   magnet Магнитная ссылка Размер: 1.45 GB Добавлен: 2024-06-08 11:00
Пиры будут получены из сети DHT
Последний сидер был замечен вчера в 22:09
Информация о фильме Оригинальное название: Руслан и Людмила. Больше, чем сказка Год выпуска: 2023 Жанр: мультфильм Выпущено: Россия / Анимационная студия «Воронеж», Кинокомпания CTB / СТВ Режиссер: Алексей Цицилин, Владимир Николаев, Алексей Замыслов В ролях: Артем Крылов, Ирина Обрезкова, Валентин Морозов, Артем Казюханов, Александр Быковский, Роман Никитин, Виктория Войнич-Слуцкая, Антон Денисов, Анастасия Салова, Давид Бродский Описание: Людмила — прекрасна и отважна, как подобает дочери великого князя. Руслан — ее добрый и находчивый возлюбленный. Но накануне свадьбы Людмила попадает в плен к настоящему колдуну Черномору, собравшему уже целую коллекцию сказочных принцесс. «Черноморда» явно не во вкусе Людмилы, и в обиду она себя не даст. А вызволять ее кто будет, Пушкин?! Впрочем и без него у Руслана нашлись соперники за ее руку и полцарства в придачу. Теперь его ждет погоня через волшебные земли, знакомство с последним говорящим медведем, столкновение с великаном и прочей сказочной невидалью, не говоря о сражении с самим Черномором на земле и в небесах. Продолжительность: 01:34:57 Перевод: не требуется Формат: MKV Качество: WEB-DLRip-AVC Видео: MPEG-4 AVC, 720x378, 24.000 fps, 1733 Kbps, 0.265 bit/pixel Аудио: 48 kHz, AC3, 3/2 (L,C,R,l,r) + LFE ch, ~384.00 kbps avg Субтитры: Русские (Full)
[+] МИGeneral Unique ID : 228035278823564975052410772361448880574 (0xAB8DFF4799F0EFA5B22084B63F6579BE) Complete name : D:Ruslan.i.Lydmila.Bolshe.chem.skazka.2023.WEB-DLRip.AVC.ExKinoRay.mkv Format : Matroska Format version : Version 2 File size : 1.45 GiB Duration : 1 h 34 min Overall bit rate : 2 181 kb/s Movie name : Руслан и Людмила. Больше, чем сказка (2023) from ExKinoRay Encoded date : UTC 2024-06-08 01:54:21 Writing application : mkvmerge v5.6.0 ('Kenya Kane') built on May 27 2012 16:44:04 Writing library : libebml v1.2.3 + libmatroska v1.3.0 Video ID : 1 Format : AVC Format/Info : Advanced Video Codec Format profile : High@L4.1 Format settings, CABAC : Yes Format settings, ReFrames : 10 frames Codec ID : V_MPEG4/ISO/AVC Duration : 1 h 34 min Bit rate : 1 733 kb/s Width : 720 pixels Height : 378 pixels Display aspect ratio : 1.905 Frame rate mode : Constant Frame rate : 24.000 FPS Color space : YUV Chroma subsampling : 4:2:0 Bit depth : 8 bits Scan type : Progressive Bits/(Pixel*Frame) : 0.265 Stream size : 1.12 GiB (77%) Writing library : x264 core 164 r3107+58M ae98796 t_mod_New Encoding settings : cabac=1 / ref=10 / deblock=1:-2:-2 / analyse=0x3:0x133 / me=umh / subme=10 / psy=1 / fade_compensate=0.00 / psy_rd=1.00:0.00 / mixed_ref=1 / me_range=32 / chroma_me=1 / trellis=2 / 8x8dct=1 / cqm=0 / deadzone=21,11 / fast_pskip=0 / chroma_qp_offset=-2 / threads=12 / lookahead_threads=2 / sliced_threads=0 / nr=0 / decimate=0 / interlaced=0 / bluray_compat=0 / constrained_intra=0 / fgo=0 / bframes=10 / b_pyramid=2 / b_adapt=2 / b_bias=0 / direct=3 / weightb=1 / open_gop=0 / weightp=2 / keyint=240 / keyint_min=24 / scenecut=40 / intra_refresh=0 / rc=2pass / mbtree=0 / bitrate=1733 / ratetol=1.0 / qcomp=0.60 / qpmin=0:0:0 / qpmax=69:69:69 / qpstep=4 / cplxblur=20.0 / qblur=0.5 / ip_ratio=1.40 / pb_ratio=1.30 / aq=1:1.00 / aq-sensitivity=10.00 / aq-factor=1.00:1.00:1.00 / aq2=0 / aq3=0 Default : Yes Forced : No Audio ID : 2 Format : AC-3 Format/Info : Audio Coding 3 Mode extension : CM (complete main) Format settings, Endianness : Big Codec ID : A_AC3 Duration : 1 h 34 min Bit rate mode : Constant Bit rate : 448 kb/s Channel(s) : 6 channels Channel positions : Front: L C R, Side: L R, LFE Sampling rate : 48.0 kHz Frame rate : 31.250 FPS (1536 spf) Compression mode : Lossy Stream size : 304 MiB (21%) Language : Russian Default : Yes Forced : No Text ID : 3 Format : UTF-8 Codec ID : S_TEXT/UTF8 Codec ID/Info : UTF-8 Plain Text Title : Full Language : Russian Default : No Forced : No
Релиз от: Автор релиза:

Всего файлов в раздаче: 1 
Ruslan.i.Lydmila.Bolshe.chem.skazka.2023.WEB-DLRip.AVC.ExKinoRay.mkv1.45 GB

Похожие раздачи по запросу - Руслан
2024-06-03 magnet Руслан и Людмила: Перезагрузка / Викрадена принцеса: Руслан i Людмила (2018) BDRip-AVC от ExKinoRay | iTunes 1.80 GB ↑ 0 ↓ 0
2023-10-06 magnet Руслан и Людмила. Больше, чем сказка (2023) WEB-DLRip 720p от DoMiNo 2.10 GB ↑ 0 ↓ 0
2023-10-06 magnet Руслан и Людмила. Больше, чем сказка (2023) WEB-DLRip 1.46 GB ↑ 1 ↓ 2
2023-10-06 magnet Руслан и Людмила. Больше, чем сказка (2023) WEB-DL 1080p 4.56 GB ↑ 2 ↓ 1

Комментарии


Зарегистрируйтесь чтобы добавить комментарий
Торрент клиент
byTorrent - программа для загрузки торрент-файлов.

Скачать byTorrent.exe (1,5 МБ)

Скачать byTorrent.zip (0,6 МБ)

Поддержи torrent.by
российских рублей
(300 российских рублей это 4$)

Обратная связь rss

End game ©