↑↓torrent.by
Поиск
Логин:  Регистрация
Пароль:

Каскадёры / The Fall Guy (2024) WEB-DLRip-AVC от ExKinoRay | D

download Скачать торрент-файл   magnet Магнитная ссылка Размер: 2.19 GB Раздают: 0 Качают: 2 Добавлен: 2024-06-08 11:00
Пиры будут получены из сети DHT
Последний сидер был замечен сегодня в 21:51
Информация о фильме Название: Каскадёры Оригинальное название: The Fall Guy Год выхода: 2024 Жанр: боевик, драма, комедия Режиссер: Дэвид Литч В ролях: Райан Гослинг, Эмили Блант, Аарон Тейлор-Джонсон, Ханна Уэддингхэм, Тереза Палмер, Стефани Сюй, Уинстон Дьюк, Бен Найт, Матузе, Адам Данн Описание: После травмы на съёмках каскадёр Колт Сиверс уже полтора года как ушёл из профессии, работает парковщиком и винит себя за тот неудавшийся трюк. Внезапно ему звонит продюсерша и просит срочно прилететь в Австралию, где его бывшая девушка-оператор Джоди снимает свой режиссёрский дебют, масштабную фантастику «Металшторм». По приезде выясняется, что Джоди видеть его не рада, а также дело осложнятся пропажей исполнителя главной роли — звезды боевиков, у которого Колт когда-то был дублёром. Рейтинг MPAA: PG-13 - детям до 13 лет просмотр не желателен Страна: США, Австралия, Канада Студия: 87North, Australian Government, Entertainment 360 Продолжительность: 02:07:02 Перевод 1: Дублированный (официальный) - Bravo Records Georgia / Movie Dubbing Перевод 2: Дублированный (неофициальный) - Red Head Sound Формат: MKV Качество: WEB-DLRip-AVC Видео: MPEG-4 AVC, 720x300, 23.976 fps, 1381 Kbps, 0.267 bit/pixel Аудио 1: 48 kHz, AC3, 3/2 (L,C,R,l,r) + LFE ch, ~448.00 kbps avg | RUS | Bravo Records Georgia Аудио 2: 48 kHz, AC3, 2/0 ch, ~192.00 kbps avg | RUS | Red Head Sound Аудио 3: 48 kHz, AC3, 3/2 (L,C,R,l,r) + LFE ch, ~448.00 kbps avg | ENG Субтитры: Русские (forced, full (Enigma)), английские (full, SDH)
[+] МИGeneral Unique ID : 212975105394666379962943469021107633962 (0xA0398366E619C3DAAD003C7B3A5CBF2A) Complete name : D:Kackadepu2024.2DUB.WEB-DLRip.AVC.ExKinoRay.mkv Format : Matroska Format version : Version 4 / Version 2 File size : 2.19 GiB Duration : 2 h 7 min Overall bit rate : 2 465 kb/s Movie name : Каскадёры (2024) from ExKinoRay Encoded date : UTC 2024-06-07 20:06:21 Writing application : mkvmerge v7.6.0 ('Garden of Dreams') 32bit built on Feb 11 2015 00:18:47 Writing library : libebml v1.3.1 + libmatroska v1.4.2 Video ID : 1 Format : AVC Format/Info : Advanced Video Codec Format profile : High@L4.1 Format settings, CABAC : Yes Format settings, ReFrames : 10 frames Codec ID : V_MPEG4/ISO/AVC Duration : 2 h 7 min Bit rate : 1 381 kb/s Width : 720 pixels Height : 300 pixels Display aspect ratio : 2.40:1 Frame rate mode : Constant Frame rate : 23.976 (24000/1001) FPS Color space : YUV Chroma subsampling : 4:2:0 Bit depth : 8 bits Scan type : Progressive Bits/(Pixel*Frame) : 0.267 Stream size : 1.22 GiB (56%) Writing library : x264 core 164 r3107+58M ae98796 t_mod_New Encoding settings : cabac=1 / ref=10 / deblock=1:-2:-2 / analyse=0x3:0x133 / me=umh / subme=10 / psy=1 / fade_compensate=0.00 / psy_rd=1.00:0.00 / mixed_ref=1 / me_range=32 / chroma_me=1 / trellis=2 / 8x8dct=1 / cqm=0 / deadzone=21,11 / fast_pskip=0 / chroma_qp_offset=-2 / threads=9 / lookahead_threads=2 / sliced_threads=0 / nr=0 / decimate=0 / interlaced=0 / bluray_compat=0 / constrained_intra=0 / fgo=0 / bframes=10 / b_pyramid=2 / b_adapt=2 / b_bias=0 / direct=3 / weightb=1 / open_gop=0 / weightp=2 / keyint=240 / keyint_min=23 / scenecut=40 / intra_refresh=0 / rc=2pass / mbtree=0 / bitrate=1381 / ratetol=1.0 / qcomp=0.60 / qpmin=0:0:0 / qpmax=69:69:69 / qpstep=4 / cplxblur=20.0 / qblur=0.5 / ip_ratio=1.40 / pb_ratio=1.30 / aq=1:1.00 / aq-sensitivity=10.00 / aq-factor=1.00:1.00:1.00 / aq2=0 / aq3=0 Default : Yes Forced : No Audio #1 ID : 2 Format : AC-3 Format/Info : Audio Coding 3 Mode extension : CM (complete main) Format settings, Endianness : Big Codec ID : A_AC3 Duration : 2 h 6 min Bit rate mode : Constant Bit rate : 448 kb/s Channel(s) : 6 channels Channel positions : Front: L C R, Side: L R, LFE Sampling rate : 48.0 kHz Frame rate : 31.250 FPS (1536 spf) Compression mode : Lossy Stream size : 405 MiB (18%) Title : Dub (Bravo Records Georgia) Language : Russian Default : Yes Forced : No Audio #2 ID : 3 Format : AC-3 Format/Info : Audio Coding 3 Mode extension : CM (complete main) Format settings, Endianness : Big Codec ID : A_AC3 Duration : 2 h 6 min Bit rate mode : Constant Bit rate : 192 kb/s Channel(s) : 2 channels Channel positions : Front: L R Sampling rate : 48.0 kHz Frame rate : 31.250 FPS (1536 spf) Compression mode : Lossy Stream size : 174 MiB (8%) Title : Dub (RHS) Language : Russian Default : No Forced : No Audio #3 ID : 4 Format : AC-3 Format/Info : Audio Coding 3 Mode extension : CM (complete main) Format settings, Endianness : Big Codec ID : A_AC3 Duration : 2 h 6 min Bit rate mode : Constant Bit rate : 448 kb/s Channel(s) : 6 channels Channel positions : Front: L C R, Side: L R, LFE Sampling rate : 48.0 kHz Frame rate : 31.250 FPS (1536 spf) Compression mode : Lossy Stream size : 405 MiB (18%) Title : Original Language : English Default : No Forced : No Text #1 ID : 5 Format : UTF-8 Codec ID : S_TEXT/UTF8 Codec ID/Info : UTF-8 Plain Text Duration : 2 h 4 min Bit rate : 9 b/s Count of elements : 150 Stream size : 8.36 KiB (0%) Title : Forced Language : Russian Default : Yes Forced : No Text #2 ID : 6 Format : UTF-8 Codec ID : S_TEXT/UTF8 Codec ID/Info : UTF-8 Plain Text Duration : 2 h 6 min Bit rate : 120 b/s Count of elements : 2565 Stream size : 111 KiB (0%) Title : Full (Enigma) Language : Russian Default : No Forced : No Text #3 ID : 7 Format : UTF-8 Codec ID : S_TEXT/UTF8 Codec ID/Info : UTF-8 Plain Text Duration : 2 h 6 min Bit rate : 92 b/s Count of elements : 2648 Stream size : 85.6 KiB (0%) Title : Full Language : English Default : No Forced : No Text #4 ID : 8 Format : UTF-8 Codec ID : S_TEXT/UTF8 Codec ID/Info : UTF-8 Plain Text Duration : 2 h 6 min Bit rate : 103 b/s Count of elements : 2948 Stream size : 96.1 KiB (0%) Title : SDH Language : English Default : No Forced : No Menu 00:00:00.000 : en:Chapter 01 00:05:53.687 : en:Chapter 02 00:11:19.804 : en:Chapter 03 00:16:34.160 : en:Chapter 04 00:21:20.321 : en:Chapter 05 00:27:00.120 : en:Chapter 06 00:35:48.398 : en:Chapter 07 00:40:11.161 : en:Chapter 08 00:44:50.607 : en:Chapter 09 00:54:12.293 : en:Chapter 10 00:59:57.931 : en:Chapter 11 01:06:10.804 : en:Chapter 12 01:12:10.622 : en:Chapter 13 01:18:48.937 : en:Chapter 14 01:27:36.131 : en:Chapter 15 01:32:47.317 : en:Chapter 16 01:40:14.639 : en:Chapter 17 01:45:10.852 : en:Chapter 18 01:50:55.655 : en:Chapter 19 01:59:36.760 : en:Chapter 20
Релиз от: Автор релиза:

Всего файлов в раздаче: 1 
Kackadepu2024.2DUB.WEB-DLRip.AVC.ExKinoRay.mkv2.19 GB

Похожие раздачи по запросу - Каскадёры
2024-06-10 magnet Каскадёры / The Fall Guy (2024) UHD WEB-DL HEVC 2160p | 4K | HDR | Dolby Vision Profile 8 | D, P 24.51 GB ↑ 0 ↓ 9
2024-06-10 magnet Каскадёры / The Fall Guy (2024) UHD WEB-DL HEVC 2160p | 4K | SDR | D, P 16.06 GB ↑ 0 ↓ 2
2024-06-10 magnet Каскадёры / The Fall Guy (2024) UHD WEB-DL HEVC 2160p | 4K | Dolby Vision TV | D, P 15.58 GB ↑ 0 ↓ 1
2024-06-01 magnet Каскадёры / Каскадер / The Fall Guy (2024) WEB-DL-HEVC 2160p | 4K | SDR | D | Line | UKR 9.85 GB ↑ 0 ↓ 2
2024-05-31 magnet Каскадёры / The Fall Guy (2024) WEB-DLRip-AVC | D, P 1.09 GB ↑ 0 ↓ 1
2024-05-30 magnet Каскадёры / The Fall Guy (2024) WEB-DL 1080p | D, P 8.97 GB ↑ 1 ↓ 4
2024-05-30 magnet Каскадёры / Каскадер / The Fall Guy (2024) WEB-DL 1080p | D | Line | UKR 8.57 GB ↑ 0 ↓ 1

Кто качает (только для создателя раздачи и модераторов):
ПользовательIP:портОтдалПринялОстатокСидируетТоррент клиентОбновился
1 Аноним 147.147.24.95:46475 928.00 kB 847.91 MB 1.98 GB нет -qB4390- 23:06 2024-06-17
2 Аноним 2.206.201.88:32941 0.00 B 0.00 B 8589934592.00 GB нет -qB4390- 23:09 2024-06-17

Комментарии


Зарегистрируйтесь чтобы добавить комментарий
Торрент клиент
byTorrent - программа для загрузки торрент-файлов.

Скачать byTorrent.exe (1,5 МБ)

Скачать byTorrent.zip (0,6 МБ)

Поддержи torrent.by
российских рублей
(300 российских рублей это 4$)

Обратная связь rss

End game ©