↑↓torrent.by
Поиск
Логин:  Регистрация
Пароль:

Шея / Kubi (2023) WEB-DLRip от New-Team | A | Сербин

download Скачать торрент-файл   magnet Магнитная ссылка Размер: 1.46 GB Добавлен: 2024-06-08 11:00
Пиры будут получены из сети DHT
Последний сидер был замечен 2024-06-10 14:14
Шея / Kubi Год выпуска: 2023 Выпущено: Япония / Kadokawa, Toho Company Жанр: история, боевик, драма Режиссер: Такеши Китано / Takeshi Kitano В ролях: Такеши Китано, Кэн Ватанабэ, Хидэтоси Нисидзима, Рё Касэ, Сидо Накамура, Таданобу Асано, Нао Омори, Юити Кимура, Кэнъити Эндо, Хару, Сусуму Тэрадзима, Масанобу Кацумура, Кэнта Киритани, Канъитиро, Дзюн Соэдзима О фильме: По одноименному роману Такэши Китано. В центре сюжета заговор в буддийском храме Хонно-дзи, произошедший в 1582 году в Японии. В результате инцидента погибает Ода Нобунага — легендарный военачальник и один из трех объединителей Японии. Продолжительность: 02:10:37 Перевод: Авторский (одноголосый, закадровый) | Ю. Сербин Субтитры: нет. Раздача от: Автор релиза: JNS82. Формат: AVI Качество: WEB-DLRip Видео: 720x304 (2.35:1), 23.976 fps, XviD MPEG-4 ~ 1401 kbps avg, 0.267 bit/pixel, build 73 Аудио: 48 kHz, AC3 Dolby Digital, 2/0 (L,R) ch, ~ 192 kbps | RUS |
[+] MediaInfoОбщее Полное имя : D:TorrentsKubi.2023.WEB-DLRip_от New-Team_by_JNS82.avi Формат : AVI Формат/Информация : Audio Video Interleave Размер файла : 1,46 Гбайт Продолжительность : 2 ч. 10 м. Общий поток : 1 603 Кбит/сек Программа кодирования : VirtualDubMod 1.5.10.2 (build 2540/release) Библиотека кодирования : VirtualDubMod build 2540/release Видео Идентификатор : 0 Формат : MPEG-4 Visual Профиль формата : Advanced Simple@L5 Настройки формата : BVOP1 / Custom Matrix Параметр BVOP формата : 1 Параметр QPel формата : Нет Параметр GMC формата : Без точки перехода Параметр матрицы формата : Выборочная Идентификатор кодека : XVID Идентификатор кодека/Подсказка : XviD Продолжительность : 2 ч. 10 м. Битрейт : 1 401 Кбит/сек Ширина : 720 пикселей Высота : 304 пикселя Соотношение сторон : 2,35:1 Частота кадров : 23,976 (24000/1001) кадра/сек Цветовое пространство : YUV Субдискретизация насыщенности : 4:2:0 Битовая глубина : 8 бит Тип развёртки : Прогрессивная Метод сжатия : С потерями Бит/(Пиксели*Кадры) : 0.267 Размер потока : 1,28 Гбайт (87%) Библиотека кодирования : XviD 73 Аудио Идентификатор : 1 Формат : AC-3 Формат/Информация : Audio Coding 3 Коммерческое название : Dolby Digital Идентификатор кодека : 2000 Продолжительность : 2 ч. 10 м. Вид битрейта : Постоянный Битрейт : 192 Кбит/сек Каналы : 2 канала Channel layout : L R Частота : 48,0 КГц Частота кадров : 31,250 кадров/сек (1536 SPF) Метод сжатия : С потерями Размер потока : 179 Мбайт (12%) Выравнивание : Разделение по промежуткам Продолжительность промежутка : 42 мс. (1,00 видеокадр) Время предзагрузки промежутка : 500 мс. Service kind : Complete Main

Всего файлов в раздаче: 1 
Kubi.2023.WEB-DLRip_от New-Team_by_JNS82.avi1.46 GB

Похожие раздачи по запросу - Шея
2024-06-08 magnet Шея / Kubi (2023) WEB-DLRip-AVC | А | Сербин 1.93 GB ↑ 16 ↓ 0
2024-06-08 magnet Шея / Kubi (2023) WEB-DL 1080p от New-Team | A | Сербин 3.96 GB ↑ 0 ↓ 1

Комментарии


Зарегистрируйтесь чтобы добавить комментарий
Торрент клиент
byTorrent - программа для загрузки торрент-файлов.

Скачать byTorrent.exe (1,5 МБ)

Скачать byTorrent.zip (0,6 МБ)

Поддержи torrent.by
российских рублей
(300 российских рублей это 4$)

Обратная связь rss

End game ©