↑↓torrent.by
Поиск
Логин:  Регистрация
Пароль:

Невидимый стрелок / The Mental State (2022) WEB-DLRip-AVC | D

download Скачать торрент-файл   magnet Магнитная ссылка Размер: 1.78 GB Раздают: 5 Качают: 0 Добавлен: il68k 2024-06-08 16:40
Пиры будут получены из сети DHT
Последний сидер был замечен сегодня в 12:51
Информация о фильме Название: Невидимый стрелок Оригинальное название: The Mental State Год выхода: 2022 Жанр: триллер, драма, детектив Режиссер: Джеймс Камали В ролях: Алисса Сазерленд, Карли Поуп, Брайан Гринберг, Элисон Торнтон, Уильям Р. Моусес, Майкл Глэдис, Джим Тру-Фрост, Ремингтон Моусес, Уильям Попп, Блейн Майе О фильме: Попав под обстрел невидимого снайпера, молодой парень Энди решает во что бы то ни стало найти убийцу. Однако полиция и местные жители сомневаются в самом существовании этого стрелка, так как никто не слышал звуков выстрелов и не нашел никаких следов перестрелки. Пытаясь разобраться, что же на самом деле произошло, Энди начинает открывать страшные тайны, связанные с личностью беспощадного городского снайпера и его намерениями. Страна: США Студия: Out of Shot Films, Tradition Pictures Продолжительность: 01:43:58 Перевод: Профессиональный (дублированный) | Видео Продакшн Файл Кодек: Н.264 Качество: WEB-DLRip-AVC Видео: MPEG-4 AVC, 1559 kbps, 1024x426 (2.40:1), 24.000 fps, 0.149 bit/pixel, High@L4 Звук 1: 48 kHz, AC3 Dolby Digital, 3/2 (L, C, R, l, r) + LFE ch, ~448 kbps | Видео Продакшн Звук 2: 48 kHz, AC3 Dolby Digital, 3/2 (L, C, R, l, r) + LFE ch, ~448 kbps | Английский Субтитры: нет Семпл
[+] Скриншоты
[+] MediaInfo raw : 1024x426p 1:1 @ 24/1 fps (cfr) x264 : using SAR=1/1 x264 : using cpu capabilities: MMX2 SSE2Fast SSSE3 SSE4.2 AVX FMA3 BMI2 AVX2 x264 : profile High, level 4.1, 4:2:0, 8-bit x264 : frame I:1094 Avg QP:15.33 size: 48062 x264 : frame P:29292 Avg QP:17.21 size: 19383 x264 : frame B:119321 Avg QP:18.33 size: 4988 x264 : consecutive B-frames: 1.9% 2.1% 5.6% 15.9% 11.0% 19.3% 38.0% 3.1% 0.3% 0.1% 0.2% 1.2% 0.2% 0.1% 0.8% x264 : mb I I16..4: 6.1% 77.7% 16.2% x264 : mb P I16..4: 1.1% 17.0% 1.7% P16..4: 35.6% 26.3% 12.8% 0.0% 0.0% skip: 5.4% x264 : mb B I16..4: 0.1% 1.2% 0.1% B16..8: 32.7% 11.9% 2.9% direct: 6.1% skip:44.9% L0:42.2% L1:43.9% BI:13.8% x264 : 8x8 transform intra:84.1% inter:59.6% x264 : direct mvs spatial:99.9% temporal:0.1% x264 : coded y, uvDC, uvAC intra: 88.4% 83.5% 65.7% inter: 20.2% 22.2% 8.3% x264 : i16 v, h, dc, p: 27% 11% 8% 54% x264 : i8 v, h, dc, ddl, ddr, vr, hd, vl, hu: 18% 11% 12% 7% 9% 11% 9% 11% 12% x264 : i4 v, h, dc, ddl, ddr, vr, hd, vl, hu: 18% 9% 5% 8% 13% 14% 12% 10% 10% x264 : i8c dc, h, v, p: 45% 21% 23% 11% x264 : Weighted P-Frames: Y:4.3% UV:2.2% x264 : ref P L0: 49.2% 11.1% 16.4% 5.0% 4.5% 2.8% 2.8% 1.4% 1.4% 1.1% 1.1% 0.8% 0.9% 0.7% 0.8% 0.0% x264 : ref B L0: 75.8% 9.7% 4.6% 2.3% 1.7% 1.4% 1.2% 0.7% 0.6% 0.6% 0.5% 0.4% 0.3% 0.1% x264 : ref B L1: 95.6% 4.4% x264 : kb/s:1558.86 x264 : encoded 149707 frames, 13.05 fps, 1558.86 kb/s ========================================================================= General Unique ID: 66871919616199750681656927910122300497 (0x324F1030AD44EFE5F552B266CEA52451) Complete name: D:\Nevidimyj.strelok.2022.IVI.WEB-DLRip.AVC.mkv Format: Matroska Format version: Version 4 File size: 1.78 GiB Duration: 1 h 43 min Overall bit rate: 2 457 kb/s Frame rate: 24.000 FPS Encoded date: 2024-06-08 01:31:34 UTC Writing application: mkvmerge v85.0 ('Shame For You') 64-bit Writing library: libebml v1.4.5 + libmatroska v1.7.1 Video ID: 1 Format: AVC Format/Info: Advanced Video Codec Format profile: High@L4.1 Format settings: CABAC / 15 Ref Frames Format settings, CABAC: Yes Format settings, Reference frames: 15 frames Codec ID: V_MPEG4/ISO/AVC Duration: 1 h 43 min Bit rate: 1 559 kb/s Width: 1 024 pixels Height: 426 pixels Display aspect ratio: 2.40:1 Frame rate mode: Constant Frame rate: 24.000 FPS Color space: YUV Chroma subsampling: 4:2:0 Bit depth: 8 bits Scan type: Progressive Bits/(Pixel*Frame): 0.149 Stream size: 1.13 GiB (63%) Title: Невидимый стрелок / The Mental State (2022) Writing library: x264 core 164 r3182 be4f020 Encoding settings: cabac=1 / ref=15 / deblock=1:-3:-3 / analyse=0x3:0x113 / me=umh / subme=10 / psy=1 / psy_rd=1.00:0.05 / mixed_ref=1 / me_range=32 / chroma_me=1 / trellis=2 / 8x8dct=1 / cqm=0 / deadzone=21, 11 / fast_pskip=0 / chroma_qp_offset=-3 / threads=12 / lookahead_threads=3 / sliced_threads=0 / nr=0 / decimate=0 / interlaced=0 / bluray_compat=0 / constrained_intra=0 / bframes=14 / b_pyramid=2 / b_adapt=2 / b_bias=0 / direct=3 / weightb=1 / open_gop=0 / weightp=2 / keyint=240 / keyint_min=24 / scenecut=40 / intra_refresh=0 / rc_lookahead=60 / rc=crf / mbtree=0 / crf=18.0 / qcomp=0.60 / qpmin=0 / qpmax=69 / qpstep=4 / vbv_maxrate=50000 / vbv_bufsize=62500 / crf_max=0.0 / nal_hrd=none / filler=0 / ip_ratio=1.40 / pb_ratio=1.30 / aq=1:1.00 Language: English Default: Yes Forced: No Color range: Limited Color primaries: BT.709 Transfer characteristics: BT.709 Matrix coefficients: BT.709 Audio #1 ID: 2 Format: AC-3 Format/Info: Audio Coding 3 Commercial name: Dolby Digital Codec ID: A_AC3 Duration: 1 h 43 min Bit rate mode: Constant Bit rate: 448 kb/s Channel(s): 6 channels Channel layout: L R C LFE Ls Rs Sampling rate: 48.0 kHz Frame rate: 31.250 FPS (1536 SPF) Compression mode: Lossy Stream size: 333 MiB (18%) Title: Dub | Видео Продакшн Language: Russian Service kind: Complete Main Default: Yes Forced: No Audio #2 ID: 3 Format: AC-3 Format/Info: Audio Coding 3 Commercial name: Dolby Digital Codec ID: A_AC3 Duration: 1 h 43 min Bit rate mode: Constant Bit rate: 448 kb/s Channel(s): 6 channels Channel layout: L R C LFE Ls Rs Sampling rate: 48.0 kHz Frame rate: 31.250 FPS (1536 SPF) Compression mode: Lossy Stream size: 333 MiB (18%) Title: English Language: English Service kind: Complete Main Default: No Forced: No
Rip by vitolinform

Всего файлов в раздаче: 1 
Nevidimyj.strelok.2022.IVI.WEB-DLRip.AVC.mkv1.78 GB

Похожие раздачи по запросу - Невидимый
2024-06-07 magnet Невидимый стрелок / The Mental State (2022) WEB-DLRip от MegaPeer | D 1.46 GB ↑ 0 ↓ 0
2024-06-07 magnet Невидимый стрелок / The Mental State (2022) WEB-DL 1080p | D 4.46 GB ↑ 1 ↓ 0
2024-05-25 magnet Невидимый мой (2023) WEB-DL 1080p от ELEKTRI4KA 3.62 GB ↑ 0 ↓ 0
2024-05-25 magnet Невидимый мой (2023) WEB-DLRip от ELEKTRI4KA 1.46 GB ↑ 0 ↓ 0

Кто качает (только для создателя раздачи и модераторов):
ПользовательIP:портОтдалПринялОстатокСидируетТоррент клиентОбновился
1 Аноним 95.26.144.212:21733 2.79 GB 0.00 B 0.00 B да -UT360W- 12:48 2024-06-16
2 Аноним 82.43.113.210:55286 4.73 GB 1.78 GB 0.00 B да -UT360W- 12:51 2024-06-16
3 Аноним 185.147.213.9:39100 31.75 MB 0.00 B 0.00 B да -UT3500- 12:46 2024-06-16
4 Аноним 37.112.20.209:57946 16.80 MB 0.00 B 0.00 B да -UT3230- 12:48 2024-06-16
5 Аноним 31.29.192.60:13012 0.00 B 0.00 B 0.00 B да -UT3120- 12:44 2024-06-16

Комментарии


Зарегистрируйтесь чтобы добавить комментарий
Торрент клиент
byTorrent - программа для загрузки торрент-файлов.

Скачать byTorrent.exe (1,5 МБ)

Скачать byTorrent.zip (0,6 МБ)

Поддержи torrent.by
российских рублей
(300 российских рублей это 4$)

Обратная связь rss

End game ©