↑↓torrent.by
Поиск
Логин:  Регистрация
Пароль:

Астерикс и Обеликс: Миссия Клеопатра / Asterix & Obelix: Mission Cleopatre (2002) DVDRip-AVC | P | Open Matte

download Скачать торрент-файл   magnet Магнитная ссылка Размер: 2.13 GB Добавлен: 2024-06-08 17:00
Пиры будут получены из сети DHT
Последний сидер был замечен 2024-06-14 11:22
Информация о фильме Название: Астерикс и Обеликс: Миссия Клеопатра Оригинальное название: Asterix & Obelix: Mission Cleopatre Год выхода: 2002 Жанр: комедия Режиссер: Ален Шаба В ролях: Жерар Депардье, Кристиан Клавье, Жамель Деббуз, Моника Беллуччи, Ален Шаба, Клод Риш, Жерар Дармон, Эдуард Баэр, Дьедонне, Мусс Диуф О фильме: Великая Клеопатра заключила пари с римским императором Юлием Цезарем о том, что ее подданные смогут всего за три месяца построить грандиозный дворец, превосходящий лучшие римские дворцы. Этой опасной чести был удостоен архитектор Нумернобис, которого — в случае неудачи — должны съесть крокодилы. Нумернобис вызывает на помощь своего старого друга — волшебника-друида Панарамикса с зельем, дарующим сверхъестественную силу. А веселые, находчивые Астерикс и Обеликс вместе с песиком Идеафиксом сопровождают друида в Египет, чтобы помешать проискам Цезаря, не желающего проигрывать Клеопатре. Страна: Франция Продолжительность: 01:43:34 Перевод: Профессиональный (многоголосый закадровый) Файл Формат: MKV Качество: DVDRip-AVC Видео: H.264/AVC, 714x428, 25 fps, ~2561 kbps Аудио 1: AC3, 2 ch, 192 Kbps - Русский (MVO НТВ) Аудио 2: AC3, 2 ch, 192 Kbps - Русский (MVO) Субтитры: нет
[+] MediaInfoGeneral Unique ID : 95403178631674337897457289822425732736 (0x47C5FBDDB3964CA97559EFF3811A5680) Complete name : D:Asterix & Obelix Mission Cleopatra (2002) OM.mkv Format : Matroska Format version : Version 4 / Version 2 File size : 2.13 GiB Duration : 1 h 43 min Overall bit rate : 2 946 kb/s Encoded date : UTC 2024-06-07 14:09:34 Writing application : mkvmerge v46.0.0 ('No Deeper Escape') 32-bit Writing library : libebml v1.3.10 + libmatroska v1.5.2 Video ID : 1 Format : AVC Format/Info : Advanced Video Codec Format profile : High@L4.1 Format settings, CABAC : Yes Format settings, ReFrames : 12 frames Codec ID : V_MPEG4/ISO/AVC Duration : 1 h 43 min Bit rate : 2 561 kb/s Width : 714 pixels Height : 428 pixels Display aspect ratio : 16:9 Original display aspect rat : 16:9 Frame rate mode : Constant Frame rate : 25.000 FPS Color space : YUV Chroma subsampling : 4:2:0 Bit depth : 8 bits Scan type : Progressive Bits/(Pixel*Frame) : 0.335 Stream size : 1.85 GiB (87%) Writing library : x264 core 157 r2935 545de2f Encoding settings : cabac=1 / ref=12 / deblock=1:-2:-2 / analyse=0x3:0x133 / me=umh / subme=9 / psy=1 / psy_rd=1.00:0.00 / mixed_ref=1 / me_range=32 / chroma_me=1 / trellis=2 / 8x8dct=1 / cqm=0 / deadzone=21,11 / fast_pskip=0 / chroma_qp_offset=-2 / threads=3 / lookahead_threads=1 / sliced_threads=0 / nr=0 / decimate=0 / interlaced=0 / bluray_compat=0 / constrained_intra=0 / bframes=10 / b_pyramid=2 / b_adapt=2 / b_bias=0 / direct=3 / weightb=1 / open_gop=0 / weightp=2 / keyint=250 / keyint_min=25 / scenecut=40 / intra_refresh=0 / rc_lookahead=60 / rc=2pass / mbtree=0 / bitrate=2561 / ratetol=1.0 / qcomp=0.60 / qpmin=0 / qpmax=69 / qpstep=4 / cplxblur=20.0 / qblur=0.5 / vbv_maxrate=50000 / vbv_bufsize=62500 / nal_hrd=none / filler=0 / ip_ratio=1.40 / pb_ratio=1.30 / aq=1:0.80 Default : Yes Forced : No Audio #1 ID : 2 Format : AC-3 Format/Info : Audio Coding 3 Format settings, Endianness : Big Codec ID : A_AC3 Duration : 1 h 43 min Bit rate mode : Constant Bit rate : 192 kb/s Channel(s) : 2 channels Channel positions : Front: L R Sampling rate : 48.0 kHz Frame rate : 31.250 FPS (1536 spf) Bit depth : 16 bits Compression mode : Lossy Stream size : 142 MiB (7%) Title : MVO НТВ Language : Russian Service kind : Complete Main Default : Yes Forced : No Audio #2 ID : 3 Format : AC-3 Format/Info : Audio Coding 3 Format settings, Endianness : Big Codec ID : A_AC3 Duration : 1 h 43 min Bit rate mode : Constant Bit rate : 192 kb/s Channel(s) : 2 channels Channel positions : Front: L R Sampling rate : 48.0 kHz Frame rate : 31.250 FPS (1536 spf) Bit depth : 16 bits Compression mode : Lossy Stream size : 142 MiB (7%) Title : MVO Language : Russian Service kind : Complete Main Default : No Forced : No
[+] Сравнения
[+] Скриншоты

Всего файлов в раздаче: 1 
Asterix & Obelix Mission Cleopatra (2002) OM.mkv2.13 GB

Кто качает (только для создателя раздачи и модераторов): Локальные пиры отсутствуют

Комментарии


Зарегистрируйтесь чтобы добавить комментарий
Торрент клиент
byTorrent - программа для загрузки торрент-файлов.

Скачать byTorrent.exe (1,5 МБ)

Скачать byTorrent.zip (0,6 МБ)

Поддержи torrent.by
российских рублей
(300 российских рублей это 4$)

Обратная связь rss

End game ©