↑↓torrent.by
Поиск
Логин:  Регистрация
Пароль:

Джек Райан / Jack Ryan [S04] (2023) BDRip-HEVC 1080p от RIPS CLUB | HDRezka Studio, Jaskier, TVShows, LostFilm

download Скачать торрент-файл   magnet Магнитная ссылка Размер: 15.63 GB Раздают: 0 Качают: 2 Добавлен: 2024-06-08 17:00
Пиры будут получены из сети DHT
Последний сидер был замечен 2024-06-09 23:31
Производство: США / Amazon Studios, Carlton Cuse Productions, Genre Arts, Paramount Television, Platinum Dunes, Push, Boot., Skydance Television Жанр: боевик, триллер, драма Режиссёр: Янн Тернер, Патрисия Ригген, Дэниэл Сакхайм В ролях: Джон Красински, Уенделл Пирс, Майкл Келли, Джон Хугенэккер, Кевин Кент, Эбби Корниш, Нуми Рапас, Нина Хосс, Али Сулиман, Хорди Молья О фильме: В четвёртом и последнем сезоне Джек Райан выполняет свою самую опасную миссию. В качестве нового исполняющего обязанности заместителя директора ЦРУ Джеку поручено раскрыть внутреннюю коррупцию. В ходе расследования Джек обнаруживает связь наркокартеля с террористической организацией, в конечном счёте раскрывая заговор и проверяя веру в систему, за защиту которой он всегда боролся. Продолжительность: ~00:58:00 серия Перевод: многоголосый профессиональный Качество: BDRip-HEVC 1080p Кодек: HEVC (x265) Видео: 1920x804, ~5034 Kbps, HEVC (Main10@L.4.1@High) 10 бит Звук: Аудио1: AC3, 6 ch, 448 Kbps - Русский, MVO (HDRezka Studio, без цензуры) Аудио2: AC3, 6 ch, 384 Kbps - Русский, MVO (Jaskier) Аудио3: AC3, 6 ch, 384 Kbps - Русский, MVO (TVShows) Аудио4: AC3, 2 ch, 384 Kbps - Русский, MVO (LostFilm) Аудио5: AC3, 6 ch, 640 Kbps - Английский Субтитры: русские (full, forced), украинские, английские (SDH) Навигация по главам: Есть
[+] Лог (x265 info) + Mediainfo x265 : frame I: 355, Avg QP:17.85 kb/s: 13047.31 x265 : frame P: 13765, Avg QP:19.02 kb/s: 9686.69 x265 : frame B: 69859, Avg QP:21.62 kb/s: 4075.49 x265 : Weighted P-Frames: Y:9.2% UV:7.3% x265 : Weighted B-Frames: Y:7.0% UV:5.1% x265 : encoded 83979 frames in 45208.66s (1.86 fps), 5033.15 kb/s, Avg QP:21.18 Общее Уникальный идентификатор : 67566216474400798461738098107098579393 (0x32D4C7AB0BB15288E8B33BA4E0D3C1C1) Полное имя : .Jack RyanTom.Clancys.Jack.Ryan.S04.BDRip-HEVC.1080pTom.Clancy's.Jack.Ryan.S04E05.Wukong.mkv Формат : Matroska Версия формата : Version 4 Размер файла : 2,97 Гбайт Продолжительность : 58 мин. 22 с. Общий битрейт : 7 279 Кбит/сек Частота кадров : 23,976 кадра/сек Название фильма : Tom.Clancy's.Jack.Ryan.S04E05.Wukong / Вуконг Имя трека/Расположение : 4 Тип содержимого : TV Show Описание : Джеку звонит Зейара с требованием ускорить доставку груза. Тем временем Новэмбэр, Райан и Чавес прибывают в Мьянму, где Майк привлекает внимание Чао. Дата выпуска : 2023-07-14 Дата записи : 2023-07-14 Программа кодирования : mkvmerge v85.0 ('Shame For You') 64-bit Библиотека кодирования : libebml v1.4.5 + libmatroska v1.7.1 Обложка : Yes Attachments : cover.jpg ACTOR : John Krasinski, Wendell Pierce, Abbie Cornish, Ali Suliman, Dina Shihabi, John Magaro, Michael Kelly, Noomi Rapace, Timothy Hutton, Nina Hoss, Peter Guinness, James Cosmo, Betty Gabriel ARTIST : John Krasinski, Wendell Pierce, Abbie Cornish, Ali Suliman, Dina Shihabi, John Magaro, Michael Kelly, Noomi Rapace, Timothy Hutton, Nina Hoss, Peter Guinness, James Cosmo, Betty Gabriel DIRECTOR : Lukas Ettlin EPISODE.PART_NUM : 5 GENRE : Drama, Action, Thriller SCREENPLAY_BY : Joe Grzeskowiak, Aaron Rabin SEASON.PART_NUM : 4 SUMMARY : Джеку звонит Зейара с требованием ускорить доставку груза. Тем временем Новэмбэр, Райан и Чавес прибывают в Мьянму, где Майк привлекает внимание Чао. SYNOPSIS : Джеку звонит Зейара с требованием ускорить доставку груза. Тем временем Новэмбэр, Райан и Чавес прибывают в Мьянму, где Майк привлекает внимание Чао. Грир узнает, кем на самом деле является Билл, а Кэти встречается с Зейарой, но не подозревает, что это ловушка. WRITTEN_BY : Joe Grzeskowiak, Aaron Rabin Видео Идентификатор : 1 Формат : HEVC Формат/Информация : High Efficiency Video Coding Профиль формата : Main 10@L4.1@High Идентификатор кодека : V_MPEGH/ISO/HEVC Продолжительность : 58 мин. 22 с. Битрейт : 5 034 Кбит/сек Ширина : 1 920 пикселей Высота : 804 пикселя Соотношение сторон дисплея : 2,39:1 Режим частоты кадров : Постоянный Частота кадров : 23,976 (24000/1001) кадра/сек Цветовое пространство : YUV Цветовая субдискретизация : 4:2:0 Битовая глубина : 10 бит Бит/(Пиксели*Кадры) : 0.136 Размер потока : 2,05 Гбайт (69%) Заголовок : Tom Clancy's Jack Ryan S04E05 / Rip by OldGamer Библиотека кодирования : x265 3.6+12-f3c5fbaff: 10bit Параметры библиотеки кодирования : cpuid=1111039 / frame-threads=4 / numa-pools=16 / wpp / no-pmode / no-pme / no-psnr / no-ssim / log-level=2 / input-csp=1 / input-res=1920x804 / interlace=0 / total-frames=83979 / level-idc=41 / high-tier=1 / uhd-bd=0 / ref=5 / no-allow-non-conformance / no-repeat-headers / annexb / no-aud / no-eob / no-eos / no-hrd / info / hash=0 / temporal-layers=0 / open-gop / min-keyint=23 / keyint=240 / gop-lookahead=0 / bframes=16 / b-adapt=2 / b-pyramid / bframe-bias=0 / rc-lookahead=40 / lookahead-slices=0 / scenecut=40 / no-hist-scenecut / radl=0 / no-splice / no-intra-refresh / ctu=32 / min-cu-size=8 / rect / amp / max-tu-size=32 / tu-inter-depth=4 / tu-intra-depth=4 / limit-tu=1 / rdoq-level=2 / dynamic-rd=0.00 / no-ssim-rd / signhide / no-tskip / nr-intra=0 / nr-inter=0 / no-constrained-intra / no-strong-intra-smoothing / max-merge=5 / limit-refs=3 / no-limit-modes / me=3 / subme=7 / merange=57 / temporal-mvp / no-frame-dup / no-hme / weightp / weightb / no-analyze-src-pics / deblock=-2:-2 / no-sao / no-sao-non-deblock / rd=6 / selective-sao=0 / no-early-skip / no-rskip / no-fast-intra / no-tskip-fast / no-cu-lossless / b-intra / no-splitrd-skip / rdpenalty=0 / psy-rd=2.00 / psy-rdoq=1.00 / no-rd-refine / no-lossless / cbqpoffs=0 / crqpoffs=0 / rc=crf / crf=21.0 / qcomp=0.60 / qpstep=4 / stats-write=0 / stats-read=0 / vbv-maxrate=50000 / vbv-bufsize=50000 / vbv-init=0.9 / min-vbv-fullness=50.0 / max-vbv-fullness=80.0 / crf-max=0.0 / crf-min=0.0 / ipratio=1.40 / pbratio=1.30 / aq-mode=1 / aq-strength=1.00 / no-cutree / zone-count=1 / zones: / start-frame=80977 / end-frame=83979 / qp=36 / no-strict-cbr / qg-size=32 / no-rc-grain / qpmax=69 / qpmin=0 / no-const-vbv / sar=1 / overscan=0 / videoformat=5 / range=0 / colorprim=2 / transfer=2 / colormatrix=2 / chromaloc=0 / display-window=0 / cll=0,0 / min-luma=0 / max-luma=1023 / log2-max-poc-lsb=8 / vui-timing-info / vui-hrd-info / slices=1 / no-opt-qp-pps / no-opt-ref-list-length-pps / no-multi-pass-opt-rps / scenecut-bias=0.00 / no-opt-cu-delta-qp / no-aq-motion / no-hdr10 / no-hdr10-opt / no-dhdr10-opt / no-idr-recovery-sei / analysis-reuse-level=0 / analysis-save-reuse-level=0 / analysis-load-reuse-level=0 / scale-factor=0 / refine-intra=0 / refine-inter=0 / refine-mv=1 / refine-ctu-distortion=0 / no-limit-sao / ctu-info=0 / no-lowpass-dct / refine-analysis-type=0 / copy-pic=1 / max-ausize-factor=1.0 / no-dynamic-refine / no-single-sei / no-hevc-aq / no-svt / no-field / qp-adaptation-range=1.00 / scenecut-aware-qp=0conformance-window-offsets / right=0 / bottom=0 / decoder-max-rate=0 / no-vbv-live-multi-pass / no-mcstf / no-sbrc Язык : Английский По умолчанию : Да Принудительно : Нет Аудио #1 Идентификатор : 2 Формат : AC-3 Формат/Информация : Audio Coding 3 Коммерческое название : Dolby Digital Идентификатор кодека : A_AC3 Продолжительность : 58 мин. 22 с. Вид битрейта : Постоянный Битрейт : 448 Кбит/сек Канал(-ы) : 6 каналов Расположение каналов : L R C LFE Ls Rs Частота дискретизации : 48,0 КГц Частота кадров : 31,250 кадров/сек (1536 SPF) Метод сжатия : С потерями Размер потока : 187 Мбайт (6%) Заголовок : MVO (HDRezka Studio) Язык : Русский Вид сервиса : Complete Main По умолчанию : Да Принудительно : Нет Нормализация звука речи : -31 dB compr : -1.48 dB cmixlev : -3.0 dB surmixlev : -3 dB mixlevel : 284 dB roomtyp : 3 ltrtcmixlev : -3.0 dB ltrtsurmixlev : -3.0 dB lorocmixlev : -3.0 dB lorosurmixlev : -3.0 dB dialnorm_Average : -31 dB dialnorm_Minimum : -31 dB dialnorm_Maximum : -31 dB Аудио #2 Идентификатор : 3 Формат : AC-3 Формат/Информация : Audio Coding 3 Коммерческое название : Dolby Digital Идентификатор кодека : A_AC3 Продолжительность : 58 мин. 22 с. Вид битрейта : Постоянный Битрейт : 384 Кбит/сек Канал(-ы) : 6 каналов Расположение каналов : L R C LFE Ls Rs Частота дискретизации : 48,0 КГц Частота кадров : 31,250 кадров/сек (1536 SPF) Метод сжатия : С потерями Размер потока : 160 Мбайт (5%) Заголовок : MVO (Jaskier) Язык : Русский Вид сервиса : Complete Main По умолчанию : Нет Принудительно : Нет Нормализация звука речи : -31 dB compr : -1.80 dB cmixlev : -3.0 dB surmixlev : -3 dB mixlevel : 80 dB roomtyp : 3 ltrtcmixlev : -3.0 dB ltrtsurmixlev : -3.0 dB lorocmixlev : -3.0 dB lorosurmixlev : -3.0 dB dialnorm_Average : -31 dB dialnorm_Minimum : -31 dB dialnorm_Maximum : -31 dB Аудио #3 Идентификатор : 4 Формат : AC-3 Формат/Информация : Audio Coding 3 Коммерческое название : Dolby Digital Идентификатор кодека : A_AC3 Продолжительность : 58 мин. 22 с. Вид битрейта : Постоянный Битрейт : 384 Кбит/сек Канал(-ы) : 6 каналов Расположение каналов : L R C LFE Ls Rs Частота дискретизации : 48,0 КГц Частота кадров : 31,250 кадров/сек (1536 SPF) Метод сжатия : С потерями Размер потока : 160 Мбайт (5%) Заголовок : MVO (TVShows) Язык : Русский Вид сервиса : Complete Main По умолчанию : Нет Принудительно : Нет Нормализация звука речи : -31 dB cmixlev : -4.5 dB surmixlev : -6 dB dialnorm_Average : -31 dB dialnorm_Minimum : -31 dB dialnorm_Maximum : -31 dB Аудио #4 Идентификатор : 5 Формат : AC-3 Формат/Информация : Audio Coding 3 Коммерческое название : Dolby Digital Идентификатор кодека : A_AC3 Продолжительность : 58 мин. 22 с. Вид битрейта : Постоянный Битрейт : 384 Кбит/сек Канал(-ы) : 2 канала Расположение каналов : L R Частота дискретизации : 48,0 КГц Частота кадров : 31,250 кадров/сек (1536 SPF) Метод сжатия : С потерями Размер потока : 160 Мбайт (5%) Заголовок : MVO (LostFilm) Язык : Русский Вид сервиса : Complete Main По умолчанию : Нет Принудительно : Нет Нормализация звука речи : -31 dB dialnorm_Average : -31 dB dialnorm_Minimum : -31 dB dialnorm_Maximum : -31 dB Аудио #5 Идентификатор : 6 Идентификатор в исходном носителе информ : 4352 (0x1100) Формат : AC-3 Формат/Информация : Audio Coding 3 Коммерческое название : Dolby Digital Идентификатор кодека : A_AC3 Продолжительность : 58 мин. 22 с. Вид битрейта : Постоянный Битрейт : 640 Кбит/сек Канал(-ы) : 6 каналов Расположение каналов : L R C LFE Ls Rs Частота дискретизации : 48,0 КГц Частота кадров : 31,250 кадров/сек (1536 SPF) Метод сжатия : С потерями Размер потока : 267 Мбайт (9%) Язык : Английский Вид сервиса : Complete Main По умолчанию : Нет Принудительно : Нет Носитель оригинала : Blu-ray Нормализация звука речи : -23 dB compr : 0.53 dB dynrng : 0.53 dB cmixlev : -3.0 dB surmixlev : -3 dB dmixmod : Lo/Ro ltrtcmixlev : -3.0 dB ltrtsurmixlev : -3.0 dB lorocmixlev : -3.0 dB lorosurmixlev : -3.0 dB dialnorm_Average : -23 dB dialnorm_Minimum : -23 dB dialnorm_Maximum : -23 dB Текст #1 Идентификатор : 7 Формат : UTF-8 Идентификатор кодека : S_TEXT/UTF8 Идентификатор кодека/Информация : UTF-8 Plain Text Продолжительность : 51 мин. 22 с. Битрейт : 4 бит/сек Частота кадров : 0,012 кадр/сек Число элементов : 38 Размер потока : 1,73 КиБ (0%) Заголовок : Russian @ forced SRT (HDrezka Studio) Язык : Русский По умолчанию : Да Принудительно : Нет Текст #2 Идентификатор : 8 Формат : UTF-8 Идентификатор кодека : S_TEXT/UTF8 Идентификатор кодека/Информация : UTF-8 Plain Text Продолжительность : 58 мин. 2 с. Битрейт : 53 бит/сек Частота кадров : 0,153 кадр/сек Число элементов : 532 Размер потока : 22,7 КиБ (0%) Заголовок : Russian @ SRT Язык : Русский По умолчанию : Нет Принудительно : Нет Текст #3 Идентификатор : 9 Формат : UTF-8 Идентификатор кодека : S_TEXT/UTF8 Идентификатор кодека/Информация : UTF-8 Plain Text Продолжительность : 58 мин. 2 с. Битрейт : 51 бит/сек Частота кадров : 0,152 кадр/сек Число элементов : 531 Размер потока : 21,7 КиБ (0%) Заголовок : Ukrainian @ SRT Язык : Украинский По умолчанию : Нет Принудительно : Нет Текст #4 Идентификатор : 10 Формат : UTF-8 Идентификатор кодека : S_TEXT/UTF8 Идентификатор кодека/Информация : UTF-8 Plain Text Продолжительность : 55 мин. 42 с. Битрейт : 37 бит/сек Частота кадров : 0,172 кадр/сек Число элементов : 574 Размер потока : 15,5 КиБ (0%) Заголовок : English @ SRT Язык : Английский По умолчанию : Нет Принудительно : Нет Текст #5 Идентификатор : 11 Формат : UTF-8 Идентификатор кодека : S_TEXT/UTF8 Идентификатор кодека/Информация : UTF-8 Plain Text Продолжительность : 57 мин. 50 с. Битрейт : 43 бит/сек Частота кадров : 0,219 кадр/сек Число элементов : 759 Размер потока : 18,5 КиБ (0%) Заголовок : English @ SRT SDH Язык : Английский По умолчанию : Нет Принудительно : Нет Меню 00:00:00.000 : en:Chapter 01 00:02:11.047 : en:Chapter 02 00:11:57.049 : en:Chapter 03 00:20:54.419 : en:Chapter 04 00:30:31.454 : en:Chapter 05 00:38:37.148 : en:Chapter 06 00:48:02.504 : en:Chapter 07 00:56:20.502 : en:Chapter 08
[+] Скриншоты
Релиз от: OldGamer

Всего файлов в раздаче: 6 
Tom.Clancy's.Jack.Ryan.S04E01.Triage.mkv2.58 GB
Tom.Clancy's.Jack.Ryan.S04E02.Convergence.mkv2.42 GB
Tom.Clancy's.Jack.Ryan.S04E03.Sacrifices.mkv2.39 GB
Tom.Clancy's.Jack.Ryan.S04E04.Bethesda.mkv2.35 GB
Tom.Clancy's.Jack.Ryan.S04E05.Wukong.mkv2.97 GB
Tom.Clancy's.Jack.Ryan.S04E06.Proof.of.Concept.mkv2.93 GB

Похожие раздачи по запросу - Джек
2024-05-28 magnet Ли Чайлд, Эндрю Чайлд - Джек Ричер 27. Время свободы (2024) MP3 406.70 MB ↑ 0 ↓ 0
2024-01-21 magnet Джек Ричер / Reacher [S02] (2023) WEB-DLRip-AVC от DoMiNo & селезень | P | HDRezka Studio 4.64 GB ↑ 0 ↓ 0
2023-06-22 magnet Джек Финней - Похитители тел (2021) MP3 205.24 MB ↑ 0 ↓ 0

Кто качает (только для создателя раздачи и модераторов):
ПользовательIP:портОтдалПринялОстатокСидируетТоррент клиентОбновился
1 Аноним 74.109.135.31:34915 0.00 B 546.97 MB 15.55 GB нет -qB4390- 00:02 2024-06-15
2 Аноним 103.77.71.87:42307 7.72 MB 1.49 GB 15.56 GB нет -qB4390- 23:29 2024-06-14

Комментарии


Зарегистрируйтесь чтобы добавить комментарий
Торрент клиент
byTorrent - программа для загрузки торрент-файлов.

Скачать byTorrent.exe (1,5 МБ)

Скачать byTorrent.zip (0,6 МБ)

Поддержи torrent.by
российских рублей
(300 российских рублей это 4$)

Обратная связь rss

End game ©