↑↓torrent.by
Поиск
Логин:  Регистрация
Пароль:

Ileana Mottola - Cool Life 924Bit, Hi-Res] (2024) FLAC

download Скачать торрент-файл   magnet Магнитная ссылка Размер: 785.43 MB Добавлен: 2024-06-09 05:00
Пиры будут получены из сети DHT
Последний сидер был замечен 2024-06-13 17:52
Ileana Mottola - Cool Life (2024) Жанр: Contemporary-Jazz, Vocal-Jazz Издание: AlfaMusic Источник: Qobuz Продолжительность: 00:39:26 Кодек: FLAC 24/88.2 Битрейт: Lossless|WEB-DL Тип рипа: tracks Треклист: 01. Space Travel (7:04) 02. Night in Torino (5:31) 03. Remember (4:06) 04. Smile (5:20) 05. Primrose (4:39) 06. Someday (4:50) 07. Cool Life (4:04) 08. Love theme from Spartacus (3:52)
[+] Отчёт MediaInfo: Общее Полное имя : O:Ileana Mottola - Cool Life (2024)�1 - Space Travel.flac Формат : FLAC Формат/Информация : Free Lossless Audio Codec Размер файла : 146 Мбайт Продолжительность : 7 м. 3 с. Режим общего битрейта : Переменный Общий поток : 2 897 Кбит/сек Альбом : COOL LIFE Альбом/Исполнитель : Ileana Mottola Трек : Space Travel Трек/Положение : 1 Исполнитель : Ileana Mottola Композитор : Joel Holmes Жанр : Jazz contemporain Дата записи : 2024 / 2024-05-31 ISRC : ITD872329703 Авторское право : 2024 AlfaMusic Studio S.a.s. 2024 AlfaMusic Studio S.a.s. UPC : 8032050024219 MEDIATYPE : album ITUNESADVISORY : 1 Аудио Формат : FLAC Формат/Информация : Free Lossless Audio Codec Продолжительность : 7 м. 3 с. Вид битрейта : Переменный Битрейт : 2 897 Кбит/сек Каналы : 2 канала Channel layout : L R Частота : 88,2 КГц Битовая глубина : 24 бит Метод сжатия : Без потерь Размер потока : 146 Мбайт (100%) Библиотека кодирования : libFLAC 1.1.0 (2003-01-26) MD5 of the unencoded content : 00000000000000000000000000000000 Общее Полное имя : O:Ileana Mottola - Cool Life (2024)�2 - Night in Torino.flac Формат : FLAC Формат/Информация : Free Lossless Audio Codec Размер файла : 114 Мбайт Продолжительность : 5 м. 30 с. Режим общего битрейта : Переменный Общий поток : 2 899 Кбит/сек Альбом : COOL LIFE Альбом/Исполнитель : Ileana Mottola Трек : Night in Torino Трек/Положение : 2 Исполнитель : Ileana Mottola Композитор : Joel Holmes Жанр : Jazz contemporain Дата записи : 2024 / 2024-05-31 ISRC : ITD872329702 Авторское право : 2024 AlfaMusic Studio S.a.s. 2024 AlfaMusic Studio S.a.s. UPC : 8032050024219 MEDIATYPE : album ITUNESADVISORY : 1 Аудио Формат : FLAC Формат/Информация : Free Lossless Audio Codec Продолжительность : 5 м. 30 с. Вид битрейта : Переменный Битрейт : 2 899 Кбит/сек Каналы : 2 канала Channel layout : L R Частота : 88,2 КГц Битовая глубина : 24 бит Метод сжатия : Без потерь Размер потока : 114 Мбайт (100%) Библиотека кодирования : libFLAC 1.1.0 (2003-01-26) MD5 of the unencoded content : 00000000000000000000000000000000 Общее Полное имя : O:Ileana Mottola - Cool Life (2024)�3 - Remember.flac Формат : FLAC Формат/Информация : Free Lossless Audio Codec Размер файла : 81,3 Мбайт Продолжительность : 4 м. 6 с. Режим общего битрейта : Переменный Общий поток : 2 772 Кбит/сек Альбом : COOL LIFE Альбом/Исполнитель : Ileana Mottola Трек : Remember Трек/Положение : 3 Исполнитель : Ileana Mottola Композитор : Ileana Mottola Жанр : Jazz contemporain Дата записи : 2024 / 2024-05-31 ISRC : ITD872430801 Авторское право : 2024 AlfaMusic Studio S.a.s. 2024 AlfaMusic Studio S.a.s. UPC : 8032050024219 MEDIATYPE : album ITUNESADVISORY : 1 Аудио Формат : FLAC Формат/Информация : Free Lossless Audio Codec Продолжительность : 4 м. 6 с. Вид битрейта : Переменный Битрейт : 2 772 Кбит/сек Каналы : 2 канала Channel layout : L R Частота : 88,2 КГц Битовая глубина : 24 бит Метод сжатия : Без потерь Размер потока : 81,3 Мбайт (100%) Библиотека кодирования : libFLAC 1.1.0 (2003-01-26) MD5 of the unencoded content : 00000000000000000000000000000000 Общее Полное имя : O:Ileana Mottola - Cool Life (2024)�4 - Smile.flac Формат : FLAC Формат/Информация : Free Lossless Audio Codec Размер файла : 103 Мбайт Продолжительность : 5 м. 20 с. Режим общего битрейта : Переменный Общий поток : 2 703 Кбит/сек Альбом : COOL LIFE Альбом/Исполнитель : Ileana Mottola Трек : Smile Трек/Положение : 4 Исполнитель : Ileana Mottola Композитор : Charlie Chaplin Жанр : Jazz contemporain Дата записи : 2024 / 2024-05-31 ISRC : ITD872329704 Авторское право : 2024 AlfaMusic Studio S.a.s. 2024 AlfaMusic Studio S.a.s. UPC : 8032050024219 MEDIATYPE : album ITUNESADVISORY : 1 Аудио Формат : FLAC Формат/Информация : Free Lossless Audio Codec Продолжительность : 5 м. 20 с. Вид битрейта : Переменный Битрейт : 2 703 Кбит/сек Каналы : 2 канала Channel layout : L R Частота : 88,2 КГц Битовая глубина : 24 бит Метод сжатия : Без потерь Размер потока : 103 Мбайт (100%) Библиотека кодирования : libFLAC 1.1.0 (2003-01-26) MD5 of the unencoded content : 00000000000000000000000000000000 Общее Полное имя : O:Ileana Mottola - Cool Life (2024)�5 - Primrose.flac Формат : FLAC Формат/Информация : Free Lossless Audio Codec Размер файла : 92,9 Мбайт Продолжительность : 4 м. 39 с. Режим общего битрейта : Переменный Общий поток : 2 794 Кбит/сек Альбом : COOL LIFE Альбом/Исполнитель : Ileana Mottola Трек : Primrose Трек/Положение : 5 Исполнитель : Ileana Mottola Композитор : Martin Spiegelberg Жанр : Jazz contemporain Дата записи : 2024 / 2024-05-31 ISRC : ITD872430802 Авторское право : 2024 AlfaMusic Studio S.a.s. 2024 AlfaMusic Studio S.a.s. UPC : 8032050024219 MEDIATYPE : album ITUNESADVISORY : 1 Аудио Формат : FLAC Формат/Информация : Free Lossless Audio Codec Продолжительность : 4 м. 39 с. Вид битрейта : Переменный Битрейт : 2 793 Кбит/сек Каналы : 2 канала Channel layout : L R Частота : 88,2 КГц Битовая глубина : 24 бит Метод сжатия : Без потерь Размер потока : 92,9 Мбайт (100%) Библиотека кодирования : libFLAC 1.1.0 (2003-01-26) MD5 of the unencoded content : 00000000000000000000000000000000 Общее Полное имя : O:Ileana Mottola - Cool Life (2024)�6 - Someday.flac Формат : FLAC Формат/Информация : Free Lossless Audio Codec Размер файла : 89,9 Мбайт Продолжительность : 4 м. 49 с. Режим общего битрейта : Переменный Общий поток : 2 602 Кбит/сек Альбом : COOL LIFE Альбом/Исполнитель : Ileana Mottola Трек : Someday Трек/Положение : 6 Исполнитель : Ileana Mottola Композитор : Ileana Mottola Жанр : Jazz contemporain Дата записи : 2024 / 2024-05-31 ISRC : ITD872430803 Авторское право : 2024 AlfaMusic Studio S.a.s. 2024 AlfaMusic Studio S.a.s. UPC : 8032050024219 MEDIATYPE : album ITUNESADVISORY : 1 Аудио Формат : FLAC Формат/Информация : Free Lossless Audio Codec Продолжительность : 4 м. 49 с. Вид битрейта : Переменный Битрейт : 2 601 Кбит/сек Каналы : 2 канала Channel layout : L R Частота : 88,2 КГц Битовая глубина : 24 бит Метод сжатия : Без потерь Размер потока : 89,9 Мбайт (100%) Библиотека кодирования : libFLAC 1.1.0 (2003-01-26) MD5 of the unencoded content : 00000000000000000000000000000000 Общее Полное имя : O:Ileana Mottola - Cool Life (2024)�7 - Cool Life.flac Формат : FLAC Формат/Информация : Free Lossless Audio Codec Размер файла : 85,9 Мбайт Продолжительность : 4 м. 3 с. Режим общего битрейта : Переменный Общий поток : 2 954 Кбит/сек Альбом : COOL LIFE Альбом/Исполнитель : Ileana Mottola Трек : Cool Life Трек/Положение : 7 Исполнитель : Ileana Mottola Композитор : Joel Holmes Жанр : Jazz contemporain Дата записи : 2024 / 2024-05-31 ISRC : ITD872329701 Авторское право : 2024 AlfaMusic Studio S.a.s. 2024 AlfaMusic Studio S.a.s. UPC : 8032050024219 MEDIATYPE : album ITUNESADVISORY : 1 Аудио Формат : FLAC Формат/Информация : Free Lossless Audio Codec Продолжительность : 4 м. 3 с. Вид битрейта : Переменный Битрейт : 2 954 Кбит/сек Каналы : 2 канала Channel layout : L R Частота : 88,2 КГц Битовая глубина : 24 бит Метод сжатия : Без потерь Размер потока : 85,9 Мбайт (100%) Библиотека кодирования : libFLAC 1.1.0 (2003-01-26) MD5 of the unencoded content : 00000000000000000000000000000000 Общее Полное имя : O:Ileana Mottola - Cool Life (2024)�8 - Love theme from Spartacus.flac Формат : FLAC Формат/Информация : Free Lossless Audio Codec Размер файла : 71,4 Мбайт Продолжительность : 3 м. 52 с. Режим общего битрейта : Переменный Общий поток : 2 577 Кбит/сек Альбом : COOL LIFE Альбом/Исполнитель : Ileana Mottola Трек : Love theme from Spartacus Трек/Положение : 8 Исполнитель : Ileana Mottola Композитор : Alex North Жанр : Jazz contemporain Дата записи : 2024 / 2024-05-31 ISRC : ITD872430804 Авторское право : 2024 AlfaMusic Studio S.a.s. 2024 AlfaMusic Studio S.a.s. UPC : 8032050024219 MEDIATYPE : album ITUNESADVISORY : 1 Аудио Формат : FLAC Формат/Информация : Free Lossless Audio Codec Продолжительность : 3 м. 52 с. Вид битрейта : Переменный Битрейт : 2 577 Кбит/сек Каналы : 2 канала Channel layout : L R Частота : 88,2 КГц Битовая глубина : 24 бит Метод сжатия : Без потерь Размер потока : 71,4 Мбайт (100%) Библиотека кодирования : libFLAC 1.1.0 (2003-01-26) MD5 of the unencoded content : 00000000000000000000000000000000 Общее Полное имя : O:Ileana Mottola - Cool Life (2024)Cover.jpg Формат : JPEG Размер файла : 246 Кбайт Изображения Формат : JPEG Ширина : 1 440 пикселей Высота : 1 440 пикселей Цветовое пространство : YUV Субдискретизация насыщенности : 4:4:4 Битовая глубина : 8 бит Метод сжатия : С потерями Размер потока : 246 Кбайт (100%) ColorSpace_ICC : RGB Общее Полное имя : O:Ileana Mottola - Cool Life (2024)foo_dr.txt Размер файла : 1,18 Кбайт
[+] Отчёт DR: foobar2000 1.3.9 / Dynamic Range Meter 1.1.1 log date: 2024-05-31 12:03:57 -------------------------------------------------------------------------------- Analyzed: Ileana Mottola / COOL LIFE -------------------------------------------------------------------------------- DR Peak RMS Duration Track -------------------------------------------------------------------------------- DR7 -0.30 dB -9.18 dB 7:04 1-Space Travel DR7 -0.30 dB -9.59 dB 5:31 2-Night in Torino DR6 -0.30 dB -8.72 dB 4:06 3-Remember DR10 -0.30 dB -12.83 dB 5:20 4-Smile DR8 -0.30 dB -9.77 dB 4:39 5-Primrose DR8 -0.30 dB -11.56 dB 4:50 6-Someday DR7 -0.30 dB -9.02 dB 4:04 7-Cool Life DR10 -0.30 dB -13.19 dB 3:52 8-Love theme from Spartacus -------------------------------------------------------------------------------- Number of tracks: 8 Official DR value: DR8 Samplerate: 88200 Hz Channels: 2 Bits per sample: 24 Bitrate: 2577 kbps Codec: FLAC ================================================================================

Всего файлов в раздаче: 9 
01 - Space Travel.flac146.28 MB
02 - Night in Torino.flac114.37 MB
03 - Remember.flac81.32 MB
04 - Smile.flac103.13 MB
05 - Primrose.flac92.92 MB
06 - Someday.flac89.90 MB
07 - Cool Life.flac85.89 MB
08 - Love theme from Spartacus.flac71.39 MB
Cover.jpg246.23 kB

Комментарии


Зарегистрируйтесь чтобы добавить комментарий
Торрент клиент
byTorrent - программа для загрузки торрент-файлов.

Скачать byTorrent.exe (1,5 МБ)

Скачать byTorrent.zip (0,6 МБ)

Поддержи torrent.by
российских рублей
(300 российских рублей это 4$)

Обратная связь rss

End game ©