↑↓torrent.by
Поиск
Логин:  Регистрация
Пароль:

Цветок, что распускается по ночам / Bame pineun kkot [S01] (2024) WEBRip 1080p от KORSARS | P | Тайм Медиа Групп

download Скачать торрент-файл   magnet Магнитная ссылка Размер: 19.77 GB Раздают: 0 Качают: 1 Добавлен: 2024-06-09 05:00
Пиры будут получены из сети DHT
Последний сидер был замечен 2024-06-12 21:40
Информация о фильме Название: Цветок, что распускается по ночам Оригинальное название: Bame pineun kkot Год выхода: 2024 Жанр: комедия, детектив Режиссеры: Чан Тхэ-ю, Чхве Джон-ин, Ли Чхан-у роли озвучивали: Ли Ха-ни, Ли Джон-вон, Ким Сан-джун, Ли Ги-у, У Ган-мин, Пак Сэ-хён, Ким Ми-гён, Чон Ён-джу, Хон Юн-хи, Чон Е-на Возрастное ограничение: 18+ О фильме: Чо Ё-хва вдовствует уже 15 лет. Днём женщина даже не выходит на улицу, а по ночам перемахивает через забор и помогает нуждающимся. Страна: Южная Корея Студия: MBC-TV Korea, Saram Entertainment Продолжительность: ~ 01:05:00 (серия) Перевод: Профессиональный (многоголосый, закадровый) | Тайм Медиа Групп Файл Формат: MKV Кодек: MPEG-4 AVC Качество: WEBRip 1080p | KP Видео: 1920x1080, ~ 3 142 kb/s, 25.000 FPS. 8 bits Аудио (русский): AAC LC, ~ 192 kb/s, 2 channels, 48.0 kHz | Тайм Медиа Групп Аудио (корейский): AAC LC, ~ 192 kb/s, 2 channels, 48.0 kHz | Оригинал Субтитры: русские (полные, в составе контейнера) Релиз от:
[+] MediaInfo General Unique ID : 270904275918255917747697891101417315113 (0xCBCE440544115A9530A0C8304ACE9B29) Complete name : Bame.pineun.kkot.S01E01.1080p.WEBRip.x264.mkv Format : Matroska Format version : Version 4 File size : 1.66 GiB Duration : 1 h 7 min Overall bit rate : 3 535 kb/s Frame rate : 25.000 FPS Encoded date : 2024-06-08 09:48:36 UTC Writing application : mkvmerge v85.0 ('Shame For You') 64-bit Writing library : libebml v1.4.5 + libmatroska v1.7.1 Video ID : 1 Format : AVC Format/Info : Advanced Video Codec Format profile : Progressive High@L4 Format settings : CABAC / 4 Ref Frames Format settings, CABAC : Yes Format settings, Reference : 4 frames Codec ID : V_MPEG4/ISO/AVC Duration : 1 h 7 min Bit rate : 3 142 kb/s Width : 1 920 pixels Height : 1 080 pixels Display aspect ratio : 16:9 Frame rate mode : Constant Frame rate : 25.000 FPS Color space : YUV Chroma subsampling : 4:2:0 Bit depth : 8 bits Scan type : Progressive Bits/(Pixel*Frame) : 0.061 Stream size : 1.47 GiB (89%) Writing library : x264 core 157 Encoding settings : cabac=1 / ref=4 / deblock=1:0:0 / analyse=0x3:0x133 / me=umh / subme=10 / psy=1 / psy_rd=1.00:0.00 / mixed_ref=1 / me_range=24 / chroma_me=1 / trellis=2 / 8x8dct=1 / cqm=0 / deadzone=21,11 / fast_pskip=1 / chroma_qp_offset=-2 / threads=34 / lookahead_threads=5 / sliced_threads=0 / nr=0 / decimate=1 / interlaced=0 / bluray_compat=0 / stitchable=1 / constrained_intra=0 / bframes=8 / b_pyramid=2 / b_adapt=2 / b_bias=0 / direct=3 / weightb=1 / open_gop=0 / weightp=2 / keyint=250 / keyint_min=25 / scenecut=40 / intra_refresh=0 / rc_lookahead=100 / rc=crf / mbtree=1 / crf=18.0 / qcomp=0.60 / qpmin=0 / qpmax=69 / qpstep=4 / vbv_maxrate=6600 / vbv_bufsize=6000 / crf_max=0.0 / nal_hrd=none / filler=0 / ip_ratio=1.40 / aq=1:1.00 Default : Yes Forced : No Color range : Limited Matrix coefficients : BT.709 Audio #1 ID : 2 Format : AAC LC Format/Info : Advanced Audio Codec Low Complexity Codec ID : A_AAC-2 Duration : 1 h 7 min Bit rate : 192 kb/s Channel(s) : 2 channels Channel layout : L R Sampling rate : 48.0 kHz Frame rate : 46.875 FPS (1024 SPF) Compression mode : Lossy Stream size : 93.4 MiB (6%) Title : "Русский (Тайм Медиа Групп)" Language : Russian Default : Yes Forced : No Audio #2 ID : 3 Format : AAC LC Format/Info : Advanced Audio Codec Low Complexity Codec ID : A_AAC-2 Duration : 1 h 7 min Bit rate : 192 kb/s Channel(s) : 2 channels Channel layout : L R Sampling rate : 48.0 kHz Frame rate : 46.875 FPS (1024 SPF) Compression mode : Lossy Stream size : 93.6 MiB (6%) Title : "Корейский" Language : Korean Default : No Forced : No Text ID : 4 Format : UTF-8 Codec ID : S_TEXT/UTF8 Codec ID/Info : UTF-8 Plain Text Duration : 1 h 6 min Bit rate : 83 b/s Frame rate : 0.215 FPS Count of elements : 858 Stream size : 40.9 KiB (0%) Title : "Русские" Language : Russian Default : Yes Forced : No
[+] Скриншоты
Приятного просмотра.

Всего файлов в раздаче: 12 
Bame.pineun.kkot.S01E01.1080p.WEBRip.x264.mkv1.66 GB
Bame.pineun.kkot.S01E02.1080p.WEBRip.x264.mkv1.65 GB
Bame.pineun.kkot.S01E03.1080p.WEBRip.x264.mkv1.65 GB
Bame.pineun.kkot.S01E04.1080p.WEBRip.x264.mkv1.64 GB
Bame.pineun.kkot.S01E05.1080p.WEBRip.x264.mkv1.60 GB
Bame.pineun.kkot.S01E06.1080p.WEBRip.x264.mkv1.64 GB
Bame.pineun.kkot.S01E07.1080p.WEBRip.x264.mkv1.59 GB
Bame.pineun.kkot.S01E08.1080p.WEBRip.x264.mkv1.65 GB
Bame.pineun.kkot.S01E09.1080p.WEBRip.x264.mkv1.62 GB
Bame.pineun.kkot.S01E10.1080p.WEBRip.x264.mkv1.63 GB
Показать все файлы

Кто качает (только для создателя раздачи и модераторов):
ПользовательIP:портОтдалПринялОстатокСидируетТоррент клиентОбновился
1 Аноним 196.177.201.109:37221 384.00 kB 1.23 GB 19.69 GB нет -qB4390- 01:09 2024-06-15

Комментарии


Зарегистрируйтесь чтобы добавить комментарий
Торрент клиент
byTorrent - программа для загрузки торрент-файлов.

Скачать byTorrent.exe (1,5 МБ)

Скачать byTorrent.zip (0,6 МБ)

Поддержи torrent.by
российских рублей
(300 российских рублей это 4$)

Обратная связь rss

End game ©