↑↓torrent.by
Поиск
Логин:  Регистрация
Пароль:

Sweet Tooth: Мальчик с оленьими рогами / Сладкоежка / Sweet Tooth [03x01-04 из 08] (2024) WEB-DL 1080p от Jaskier | P

download Скачать торрент-файл   magnet Магнитная ссылка Размер: 7.60 GB Добавлен: 2024-06-09 11:00
Пиры будут получены из сети DHT
Последний сидер был замечен 2024-06-09 11:00
Информация о фильме Название: Sweet Tooth: Мальчик с оленьими рогами Оригинальное название: Sweet Tooth Год выхода: 2024 Жанр: фантастика, фэнтези, боевик, драма, приключения Режиссер: Джим Микл, Тоа Фрейзер, Робин Грэйс В ролях: Нонсо Анози, Кристиан Конвери, Адиль Ахтар, Стефания Оуэн, Даня Рамирес, Ализа Веллани, Уилл Форте, Джеймс Бролин, Миа Артемис, Нил Сэндилэндс О фильме: Милый мальчик — получеловек-полуолень — пускается под защитой мрачного друга в опасное приключение в надежде начать новую жизнь. Страна: США Студия: Nightshade, Team Downey, DC Entertainment Продолжительность: ~00:50:00 Перевод: Профессиональный (многоголосый закадровый) Jaskier Файл Кодек: MKV Качество: WEB-DL 1080p Видео: AVC, 1920x1080 (16:9), 23.976 fps, ~4598 kbps Звук: Аудио 1: Русский, AC-3, 48 kHz, 6 ch, 384 kbps | Jaskier Аудио 2: Английский, E-AC-3, 48 kHz, 6 ch, 640 kbps Субтитры: Русские, Английские (SDH) Семпл
[+] MediaInfo General Unique ID : 198066823759102979559069682119806957551 (0x9502485E285F60D2B8BB43CB6D8637EF) Complete name : E:TorrentSweet.Tooth.S03.1080p.WEB.H264-JaskierSweet.Tooth.S03E01.1080p.WEB.H264-Jaskier.mkv Format : Matroska Format version : Version 4 File size : 1.90 GiB Duration : 47 min 25 s Overall bit rate mode : Variable Overall bit rate : 5 736 kb/s Frame rate : 23.976 FPS Encoded date : 2024-06-08 20:54:23 UTC Writing application : mkvmerge v6.6.0 ('The Edge Of The In Between') built on Dec 1 2013 17:55:00 Writing library : libebml v1.3.0 + libmatroska v1.4.1 Video ID : 1 Format : AVC Format/Info : Advanced Video Codec Format profile : Main@L4 Format settings : CABAC / 3 Ref Frames Format settings, CABAC : Yes Format settings, Reference frames : 3 frames Codec ID : V_MPEG4/ISO/AVC Duration : 47 min 25 s Bit rate mode : Variable Bit rate : 4 598 kb/s Nominal bit rate : 5 000 kb/s Maximum bit rate : 7 500 kb/s Width : 1 920 pixels Height : 1 080 pixels Display aspect ratio : 16:9 Frame rate mode : Constant Frame rate : 23.976 (24000/1001) FPS Original frame rate : 47.952 (48000/1001) FPS Color space : YUV Chroma subsampling : 4:2:0 Bit depth : 8 bits Scan type : Progressive Bits/(Pixel*Frame) : 0.092 Stream size : 1.52 GiB (80%) Writing library : x264 core 148 r2727 7d026e8 Encoding settings : cabac=1 / ref=3 / deblock=1:0:0 / analyse=0x1:0x111 / me=umh / subme=10 / psy=1 / psy_rd=1.00:0.00 / mixed_ref=1 / me_range=24 / chroma_me=1 / trellis=2 / 8x8dct=0 / cqm=0 / deadzone=21,11 / fast_pskip=1 / chroma_qp_offset=-2 / threads=6 / lookahead_threads=1 / sliced_threads=0 / nr=0 / decimate=1 / interlaced=0 / bluray_compat=0 / stitchable=1 / constrained_intra=0 / bframes=2 / b_pyramid=0 / b_adapt=2 / b_bias=0 / direct=3 / weightb=1 / open_gop=0 / weightp=2 / keyint=240 / keyint_min=121 / scenecut=0 / intra_refresh=0 / rc_lookahead=48 / rc=2pass / mbtree=1 / bitrate=5000 / ratetol=1.0 / qcomp=0.50 / qpmin=6 / qpmax=51 / qpstep=4 / cplxblur=20.0 / qblur=0.5 / vbv_maxrate=7500 / vbv_bufsize=10000 / nal_hrd=vbr / filler=0 / ip_ratio=1.40 / aq=1:1.00 Default : Yes Forced : No Audio #1 ID : 2 Format : AC-3 Format/Info : Audio Coding 3 Commercial name : Dolby Digital Codec ID : A_AC3 Duration : 47 min 25 s Bit rate mode : Constant Bit rate : 384 kb/s Channel(s) : 6 channels Channel layout : L R C LFE Ls Rs Sampling rate : 48.0 kHz Frame rate : 31.250 FPS (1536 SPF) Compression mode : Lossy Stream size : 130 MiB (7%) Title : Jaskier Language : Russian Service kind : Complete Main Default : Yes Forced : No Dialog Normalization : -31 dB cmixlev : -4.5 dB surmixlev : -6 dB dialnorm_Average : -31 dB dialnorm_Minimum : -31 dB dialnorm_Maximum : -31 dB Audio #2 ID : 3 Format : E-AC-3 Format/Info : Enhanced AC-3 Commercial name : Dolby Digital Plus Codec ID : A_EAC3 Duration : 47 min 25 s Bit rate mode : Constant Bit rate : 640 kb/s Channel(s) : 6 channels Channel layout : L R C LFE Ls Rs Sampling rate : 48.0 kHz Frame rate : 31.250 FPS (1536 SPF) Compression mode : Lossy Stream size : 217 MiB (11%) Title : Original Language : English Service kind : Complete Main Default : No Forced : No Dialog Normalization : -27 dB compr : -0.28 dB dialnorm_Average : -27 dB dialnorm_Minimum : -27 dB dialnorm_Maximum : -27 dB Text #1 ID : 4 Format : UTF-8 Codec ID : S_TEXT/UTF8 Codec ID/Info : UTF-8 Plain Text Language : Russian Default : No Forced : No Text #2 ID : 5 Format : UTF-8 Codec ID : S_TEXT/UTF8 Codec ID/Info : UTF-8 Plain Text Title : SDH Language : English Default : No Forced : No
[+] Скриншоты
Релиз от: Jaskier

Всего файлов в раздаче: 4 
Sweet.Tooth.S03E01.1080p.WEB.H264-Jaskier.mkv1.90 GB
Sweet.Tooth.S03E02.1080p.WEB.H264-Jaskier.mkv1.85 GB
Sweet.Tooth.S03E03.1080p.WEB.H264-Jaskier.mkv1.83 GB
Sweet.Tooth.S03E04.1080p.WEB.H264-Jaskier.mkv2.02 GB

Похожие раздачи по запросу - Sweet
Вчера magnet Север ада / Дом, милый ад / Home Sweet Hell (2015) HDRip-AVC от DoMiNo | iTunes 1.64 GB ↑ 0 ↓ 0
Вчера magnet Север ада / Дом, милый ад / Home Sweet Hell (2015) BDRip-AVC от HELLYWOOD | iTunes 1К2.14 GB ↑ 0 ↓ 1
2024-06-10 magnet Sweet Tooth: Мальчик с оленьими рогами / Сладкоежка / Sweet Tooth [S03] (2024) WEB-DL 1080p от Jaskier | P 13.41 GB ↑ 0 ↓ 1
2024-06-07 magnet Sweet Tooth: Мальчик с оленьими рогами / Сладкоежка / Sweet Tooth [S03] (2024) WEBRip 1080p от Kerob | L2 14.04 GB ↑ 0 ↓ 0
2024-06-07 magnet Sweet Tooth: Мальчик с оленьими рогами / Сладкоежка / Sweet Tooth [S03] (2024) WEBRip от Kerob | L2 3.02 GB ↑ 0 ↓ 0
2024-06-01 magnet Сладкая парочка / Daljjakjigeunhae: 7510 / Honey Sweet (2023) WEB-DL 1080p | D 5.44 GB ↑ 0 ↓ 0
2024-05-25 magnet Дом, милый ад / Home Sweet Hell (2015) ВDRip 1080р | iTunes 10.65 GB ↑ 0 ↓ 0

Комментарии


Зарегистрируйтесь чтобы добавить комментарий
Торрент клиент
byTorrent - программа для загрузки торрент-файлов.

Скачать byTorrent.exe (1,5 МБ)

Скачать byTorrent.zip (0,6 МБ)

Поддержи torrent.by
российских рублей
(300 российских рублей это 4$)

Обратная связь rss

End game ©