↑↓torrent.by
Поиск
Логин:  Регистрация
Пароль:

Откройте, полиция! 2 / Продажные против продажных / Ripoux contre ripoux (1990) BDRip 1080p от MediaClub | D, P

download Скачать торрент-файл   magnet Магнитная ссылка Размер: 11.28 GB Добавлен: 2024-06-09 11:00
Пиры будут получены из сети DHT
Последний сидер был замечен 2024-06-09 11:00
Информация о фильме Название: Откройте, полиция! 2 (Продажные против продажных) Оригинальное название: Ripoux contre ripoux Год выпуска: 1990 Жанр: Боевик, комедия, криминал Режиссер: Клод Зиди В ролях: Филипп Нуаре, Тьерри Лермитт, Ги Маршан, Жан-Пьер Кастальди, Грейс Де Капитани, Лин Рено, Мишель Омон, Жан-Клод Бриали, Жан Бенгиги, Кристиан Буйетт Описание: Продажный и его неподкупный напарник попались на пустяке, и их выгнали из полиции, после чего им пришлось уехать на ферму к старому другу Нуаре. Пришедшая же им на смену пара негодяев поставила вымогательство на широкую ногу. С таким размахом, что все мелкие жулики, смеявшиеся над старостью и юностью наших героев, против которых дружно давали показания, просто взвыли. Взвыли и послали делегацию к отверженным бедолагам, забавляющимся мошенничеством на скачках.Они умоляли их вернуться и спасти от новых полицейских, по форме «работы» больше напоминающих беспредельных рэкитеров. И они вернулись... Страна: Франция Студия: Films 7, Orly Films, Sédif Productions, TF1 Films Productions Продолжительность: 01:46:11 Перевод: Дублированный, профессиональный многоголосый Файл Качество: BDRip 1080p Видео: MPEG-4 AVC, 14 Mбит/с, 1754x1080, 24.000 кадр/с Аудио #1: Русский (AC3, 6 ch, 448 Кбит/с) / Профессиональный многоголосый (CP-Digital) Аудио #2: Русский (AC3, 2 ch, 192 Кбит/с) / Дублированный (Советский дубляж) Аудио #3: Русский (AC3, 2 ch, 192 Кбит/с) / Профессиональный многоголосый (ОРТ) Аудио #4: Украинский (AC3, 2 ch, 192 Кбит/с) / Профессиональный многоголосый (НТН) Аудио #5: Французский (AC3, 2 ch, 192 Кбит/с) Субтитры: Русские
[+] Скриншоты
[+] О релизе За Remux спасибо HDClub
[+] MIОбщее Уникальный идентификатор : 236679345188963823830222101780206184085 (0xB20EC8A7E2D89453AB31DB911EC3E695) Полное имя : D:Mои раздачиOtkroite.policiya-2.1986.BDRip.1080p-MediaClub.mkv Формат : Matroska Версия формата : Version 4 / Version 2 Размер файла : 11,3 Гбайт Продолжительность : 1 ч. 46 м. Общий поток : 15,2 Мбит/сек Дата кодирования : UTC 2014-02-11 14:49:46 Программа кодирования : mkvmerge v6.1.0 ('Old Devil') built on Mar 4 2013 09:10:42 Библиотека кодирования : libebml v1.3.0 + libmatroska v1.4.0 Видео Идентификатор : 1 Формат : AVC Формат/Информация : Advanced Video Codec Профиль формата : High@L4.1 Параметр CABAC формата : Да Параметр ReFrames формата : 4 кадра Идентификатор кодека : V_MPEG4/ISO/AVC Продолжительность : 1 ч. 46 м. Битрейт : 14,0 Мбит/сек Ширина : 1754 пикселя Высота : 1080 пикселей Соотношение сторон : 16:10 Режим частоты кадров : Постоянный Частота кадров : 24,000 кадра/сек Цветовое пространство : YUV Субдискретизация насыщенности : 4:2:0 Битовая глубина : 8 бит Тип развёртки : Прогрессивная Бит/(Пиксели*Кадры) : 0.308 Размер потока : 10,2 Гбайт (90%) Заголовок : -=MediaClub-kaspr=- Библиотека кодирования : x264 core 140 r2377+40 929f149 tMod Настройки программы : cabac=1 / ref=4 / deblock=1:-3:-3 / analyse=0x3:0x133 / me=umh / subme=11 / psy=1 / fade_compensate=0.00 / psy_rd=1.00:0.20 / mixed_ref=1 / me_range=32 / chroma_me=1 / trellis=2 / 8x8dct=1 / cqm=0 / deadzone=21,11 / fast_pskip=0 / chroma_qp_offset=-3 / threads=12 / lookahead_threads=2 / sliced_threads=0 / nr=0 / decimate=0 / interlaced=0 / bluray_compat=0 / constrained_intra=0 / fgo=0 / bframes=8 / b_pyramid=2 / b_adapt=2 / b_bias=0 / direct=3 / weightb=1 / open_gop=0 / weightp=2 / keyint=240 / keyint_min=24 / scenecut=40 / intra_refresh=0 / rc=2pass / mbtree=0 / bitrate=14000 / ratetol=1.0 / qcomp=0.60 / qpmin=0:0:0 / qpmax=69:69:69 / qpstep=4 / cplxblur=20.0 / qblur=0.5 / ip_ratio=1.40 / pb_ratio=1.30 / aq=2:1.00 / aq-sensitivity=10.00 / aq-factor=1.00:1.00:1.00 / aq2=0 / aq3=0 Default : Да Forced : Да Аудио #1 Идентификатор : 2 Формат : AC-3 Формат/Информация : Audio Coding 3 Расширение режима : CM (complete main) Параметр Endianness формата : Big Идентификатор кодека : A_AC3 Продолжительность : 1 ч. 46 м. Вид битрейта : Постоянный Битрейт : 448 Кбит/сек Каналы : 6 каналов Расположение каналов : Front: L C R, Side: L R, LFE Частота : 48,0 КГц Битовая глубина : 16 бит Метод сжатия : С потерями Размер потока : 340 Мбайт (3%) Заголовок : CP-Digital Язык : Russian Default : Да Forced : Да Аудио #2 Идентификатор : 3 Формат : AC-3 Формат/Информация : Audio Coding 3 Расширение режима : CM (complete main) Параметр Endianness формата : Big Идентификатор кодека : A_AC3 Продолжительность : 1 ч. 46 м. Вид битрейта : Постоянный Битрейт : 192 Кбит/сек Каналы : 2 канала Расположение каналов : Front: L R Частота : 48,0 КГц Битовая глубина : 16 бит Метод сжатия : С потерями Размер потока : 146 Мбайт (1%) Заголовок : Dub Язык : Russian Default : Нет Forced : Нет Аудио #3 Идентификатор : 4 Формат : AC-3 Формат/Информация : Audio Coding 3 Расширение режима : CM (complete main) Параметр Endianness формата : Big Идентификатор кодека : A_AC3 Продолжительность : 1 ч. 46 м. Вид битрейта : Постоянный Битрейт : 192 Кбит/сек Каналы : 2 канала Расположение каналов : Front: L R Частота : 48,0 КГц Битовая глубина : 16 бит Метод сжатия : С потерями Размер потока : 146 Мбайт (1%) Заголовок : ORT Язык : Russian Default : Нет Forced : Нет Аудио #4 Идентификатор : 5 Формат : AC-3 Формат/Информация : Audio Coding 3 Расширение режима : CM (complete main) Параметр Endianness формата : Big Идентификатор кодека : A_AC3 Продолжительность : 1 ч. 46 м. Вид битрейта : Постоянный Битрейт : 192 Кбит/сек Каналы : 2 канала Расположение каналов : Front: L R Частота : 48,0 КГц Битовая глубина : 16 бит Метод сжатия : С потерями Размер потока : 146 Мбайт (1%) Заголовок : NTN Язык : Ukrainian Default : Нет Forced : Нет Аудио #5 Идентификатор : 6 Формат : AC-3 Формат/Информация : Audio Coding 3 Расширение режима : CM (complete main) Параметр Endianness формата : Big Идентификатор кодека : A_AC3 Продолжительность : 1 ч. 46 м. Вид битрейта : Постоянный Битрейт : 192 Кбит/сек Каналы : 2 канала Расположение каналов : Front: L R Частота : 48,0 КГц Битовая глубина : 16 бит Метод сжатия : С потерями Размер потока : 146 Мбайт (1%) Язык : French Default : Нет Forced : Нет Текст Идентификатор : 7 Формат : UTF-8 Идентификатор кодека : S_TEXT/UTF8 Идентификатор кодека/Информация : UTF-8 Plain Text Язык : Russian Default : Нет Forced : Нет Меню 00:00:00.000 : en:Chapter 01 00:09:18.750 : en:Chapter 02 00:18:05.375 : en:Chapter 03 00:27:51.875 : en:Chapter 04 00:35:54.332 : en:Chapter 05 00:44:30.916 : en:Chapter 06 00:53:55.166 : en:Chapter 07 01:00:58.458 : en:Chapter 08 01:09:55.250 : en:Chapter 09 01:19:59.041 : en:Chapter 10 01:28:26.375 : en:Chapter 11 01:36:38.332 : en:Chapter 12 01:46:10.832 : en:Chapter 13
Релиз:

Всего файлов в раздаче: 1 
Otkroite.policiya-2.1986.BDRip.1080p-MediaClub.mkv11.28 GB

Похожие раздачи по запросу - Откройте
2024-06-09 magnet Откройте, полиция! – 2 / Продажные против продажных / My New Partner II / Ripoux contre ripoux (1990) BDRip от HQCLUB 2.18 GB ↑ 0 ↓ 0

Кто качает (только для создателя раздачи и модераторов): Локальные пиры отсутствуют

Комментарии


Зарегистрируйтесь чтобы добавить комментарий
Торрент клиент
byTorrent - программа для загрузки торрент-файлов.

Скачать byTorrent.exe (1,5 МБ)

Скачать byTorrent.zip (0,6 МБ)

Поддержи torrent.by
российских рублей
(300 российских рублей это 4$)

Обратная связь rss

End game ©