↑↓torrent.by
Поиск
Логин:  Регистрация
Пароль:

Пятница 13-е. Новая глава / Палач / The Hangman (2024) WEB-DL 1080p от New-Team | P | TVShows

download Скачать торрент-файл   magnet Магнитная ссылка Размер: 3.95 GB Раздают: 0 Качают: 1 Добавлен: 2024-06-09 15:09
Пиры будут получены из сети DHT
Последний сидер был замечен вчера в 22:58
Пятница 13-е. Новая глава / Палач / The Hangman Год выпуска: 2024 Выпущено: США / Epic Pictures Group, Traverse Terror Жанр: ужасы Режиссер: Брюс Уэмпл / Bruce Wemple В ролях: ЛеДжон Вудс, Мар Челлус, Линдси Дресбах, Скотт Калленбергер, Кайтлин Лунарди, Роб Чардазон, Джефферсон Кокс, Дэниел Мартин Беркей, Уильям Шуман, Амира Бриггс, Джесси Холтерманн, Ричард Лоунелло О фильме: Пытаясь наладить непростые отношения с сыном-подростком, Леон берет его в путешествие в отдаленную деревню в Аппалачах. Леон просыпается утром и обнаруживает, что сын исчез. Чтобы найти его, Леону придется столкнуться со смертоносным культом и кровожадным монстром по имени Мясник. Продолжительность: 01:29:49 Перевод: Профессиональный (многоголосый, закадровый) | TVShows (Thx. SunOfABeach) Субтитры: Английские (full, SDH) Раздача от: Автор релиза: JNS82. Формат: MKV Качество: WEB-DL 1080p | AMZN Видео: MPEG-4 AVC, (2,35:1), 1920x816, 5268 Кбит/с, 23,976 fps Аудио #1: 48 kHz, AC3 Dolby Digital, 3/2 (L,C,R,l,r) + LFE ch, ~ 384 kbps | RUS | Аудио #2: 48 kHz, E-AC3 Dolby Digital, 3/2 (L,C,R,l,r) + LFE ch, ~ 640 kbps | ENG |
[+] MediaInfoОбщее Уникальный идентификатор : 1826474796122633387986025513819191561 (0x15FC428F9FD62DF7C9A38832A763909) Полное имя : D:TorrentsThe.Hangman.2024.1080p.AMZN_от New-Team.mkv Формат : Matroska Версия формата : Version 4 Размер файла : 3,95 Гбайт Продолжительность : 1 ч. 29 м. Общий поток : 6 295 Кбит/сек Название фильма : The.Hangman.2024.1080p.AMZN_от New-Team Дата кодирования : UTC 2024-06-08 18:21:08 Программа кодирования : mkvmerge v79.0 ('Funeral Pyres') 64-bit Библиотека кодирования : libebml v1.4.4 + libmatroska v1.7.1 Видео Идентификатор : 1 Формат : AVC Формат/Информация : Advanced Video Codec Профиль формата : High@L4 Настройки формата : CABAC / 4 Ref Frames Параметр CABAC формата : Да Параметр RefFrames формата : 4 кадра Идентификатор кодека : V_MPEG4/ISO/AVC Продолжительность : 1 ч. 29 м. Вид битрейта : Постоянный Битрейт : 5 268 Кбит/сек Номинальный битрейт : 10 000 Кбит/сек Ширина : 1 920 пикселей Высота : 816 пикселей Соотношение сторон : 2,35:1 Режим частоты кадров : Постоянный Частота кадров : 23,976 (24000/1001) кадра/сек Цветовое пространство : YUV Субдискретизация насыщенности : 4:2:0 Битовая глубина : 8 бит Тип развёртки : Прогрессивная Бит/(Пиксели*Кадры) : 0.140 Размер потока : 3,31 Гбайт (84%) Язык : English Default : Да Forced : Нет Цветовой диапазон : Limited Основные цвета : BT.709 Характеристики трансфера : BT.709 Коэффициенты матрицы : BT.709 Аудио #1 Идентификатор : 2 Формат : AC-3 Формат/Информация : Audio Coding 3 Коммерческое название : Dolby Digital Идентификатор кодека : A_AC3 Продолжительность : 1 ч. 29 м. Вид битрейта : Постоянный Битрейт : 384 Кбит/сек Каналы : 6 каналов Channel layout : L R C LFE Ls Rs Частота : 48,0 КГц Частота кадров : 31,250 кадров/сек (1536 SPF) Метод сжатия : С потерями Размер потока : 247 Мбайт (6%) Заголовок : MVO - TVShows Язык : Russian Service kind : Complete Main Default : Да Forced : Нет Аудио #2 Идентификатор : 3 Формат : E-AC-3 Формат/Информация : Enhanced AC-3 Коммерческое название : Dolby Digital Plus Идентификатор кодека : A_EAC3 Продолжительность : 1 ч. 29 м. Вид битрейта : Постоянный Битрейт : 640 Кбит/сек Каналы : 6 каналов Channel layout : L R C LFE Ls Rs Частота : 48,0 КГц Частота кадров : 31,250 кадров/сек (1536 SPF) Метод сжатия : С потерями Размер потока : 411 Мбайт (10%) Заголовок : Original Язык : English Service kind : Complete Main Default : Нет Forced : Нет Текст #1 Идентификатор : 4 Формат : UTF-8 Идентификатор кодека : S_TEXT/UTF8 Идентификатор кодека/Информация : UTF-8 Plain Text Продолжительность : 1 ч. 27 м. Битрейт : 40 бит/сек Count of elements : 1089 Размер потока : 25,8 Кбайт (0%) Заголовок : Язык : English Default : Нет Forced : Нет Текст #2 Идентификатор : 5 Формат : UTF-8 Идентификатор кодека : S_TEXT/UTF8 Идентификатор кодека/Информация : UTF-8 Plain Text Продолжительность : 1 ч. 29 м. Битрейт : 43 бит/сек Count of elements : 1217 Размер потока : 28,6 Кбайт (0%) Заголовок : Язык : English Default : Нет Forced : Нет Меню 00:00:00.000 : en:Scene 01 01:29:44.000 : en:End Credits

Всего файлов в раздаче: 1 
The.Hangman.2024.1080p.AMZN_от New-Team.mkv3.95 GB

Похожие раздачи по запросу - Пятница
2024-06-09 magnet Пятница 13-е. Новая глава / Палач / The Hangman (2024) WEB-DLRip-AVC | P | TVShows 1.48 GB ↑ 0 ↓ 1
2024-06-09 magnet Пятница 13-е. Новая глава / Палач / The Hangman (2024) WEB-DL 720p от селезень | P | TVShows 2.07 GB ↑ 0 ↓ 0
2024-06-09 magnet Пятница 13-е. Новая глава / Палач / The Hangman (2024) WEB-DLRip от New-Team | P | TVShows 1.46 GB ↑ 0 ↓ 0

Кто качает (только для создателя раздачи и модераторов):
ПользовательIP:портОтдалПринялОстатокСидируетТоррент клиентОбновился
1 Аноним 207.217.39.92:43147 2.25 MB 3.88 GB 3.87 GB нет -qB4390- 04:22 2024-06-14

Комментарии


Зарегистрируйтесь чтобы добавить комментарий
Торрент клиент
byTorrent - программа для загрузки торрент-файлов.

Скачать byTorrent.exe (1,5 МБ)

Скачать byTorrent.zip (0,6 МБ)

Поддержи torrent.by
российских рублей
(300 российских рублей это 4$)

Обратная связь rss

End game ©