↑↓torrent.by
Поиск
Логин:  Регистрация
Пароль:

Euge Valovirta - Hardtones [24Bit, Hi-Res] (2024) FLAC

download Скачать торрент-файл   magnet Магнитная ссылка Размер: 493.13 MB Добавлен: 2024-06-10 05:00
Пиры будут получены из сети DHT
Последний сидер был замечен вчера в 18:00
Euge Valovirta - Hardtones (2024) Жанр: Heavy-Metal, Progressive-Metal Издание: Gramophone Records Источник: ссылка Продолжительность: 00:40:40 Кодек: FLAC 24/44.1 Битрейт: Lossless|WEB-DL Тип рипа: tracks Треклист: 01. Testify (feat. Samy Elbanna) (3:54) 02. The Game (feat. Joonas Kosonen & Ben Varon) (3:44) 03. Gone Without A Trace (feat. Nico Hartonen) (3:33) 04. Pasadena '78 (feat. Jules Näveri) (3:05) 05. Rock & Roll Unites (feat. Jake E) (4:18) 06. Fast Living, Slow Suicide (feat. Olli Herman) (3:07) 07. Going Down The Hole (feat. Nico Hartonen) (3:10) 08. Not My Time (feat. Ben Varon & Joonas Kosonen) (3:50) 09. Wake Up (feat. Pekka Heino) (4:18) 10. Flesh From The Bone (feat. Samy Elbanna) (4:14) 11. Road Song II (feat. Nico Hartonen) (3:27)
[+] Отчёт Замер динамического диапазона: foobar2000 1.6.12 / Замер динамического диапазона (DR) 1.1.1 Дата отчёта: 2024-06-03 17:59:18 -------------------------------------------------------------------------------- Анализ: Euge Valovirta, Ben Varon, Joonas Kosonen / Hardtones (1-2) Euge Valovirta, Jake E / Hardtones (3) Euge Valovirta, Jules Näveri / Hardtones (4) Euge Valovirta, Nico Hartonen / Hardtones (5-7) Euge Valovirta, Olli Herman / Hardtones (8) Euge Valovirta, Pekka Heino / Hardtones (9) Euge Valovirta, Samy Elbanna / Hardtones (10-11) -------------------------------------------------------------------------------- DR Пики RMS Продолжительность трека -------------------------------------------------------------------------------- DR7 -1.51 дБ -8.98 дБ 3:44 ?-The Game (feat. Joonas Kosonen & Ben Varon) DR7 -1.51 дБ -9.45 дБ 3:50 ?-Not My Time (feat. Ben Varon & Joonas Kosonen) DR7 -1.51 дБ -8.92 дБ 4:18 ?-Rock & Roll Unites (feat. Jake E) DR7 -1.51 дБ -9.38 дБ 3:05 ?-Pasadena '78 (feat. Jules Näveri) DR7 -1.51 дБ -9.37 дБ 3:33 ?-Gone Without A Trace (feat. Nico Hartonen) DR8 -1.51 дБ -10.14 дБ 3:10 ?-Going Down The Hole (feat. Nico Hartonen) DR7 -1.51 дБ -9.37 дБ 3:27 ?-Road Song II (feat. Nico Hartonen) DR7 -1.51 дБ -9.61 дБ 3:07 ?-Fast Living, Slow Suicide (feat. Olli Herman) DR8 -1.51 дБ -10.47 дБ 4:18 ?-Wake Up (feat. Pekka Heino) DR8 -1.51 дБ -9.78 дБ 3:54 ?-Testify (feat. Samy Elbanna) DR7 -1.51 дБ -9.80 дБ 4:14 ?-Flesh From The Bone (feat. Samy Elbanna) -------------------------------------------------------------------------------- Количество треков: 11 Реальные значения DR: DR7 Частота: 44100 Гц Каналов: 2 Разрядность: 24 Битрейт: 1647 кбит/с Кодек: FLAC ================================================================================

Всего файлов в раздаче: 13 
01 - Testify (feat. Samy Elbanna).flac47.23 MB
02 - The Game (feat. Joonas Kosonen & Ben Varon).flac45.51 MB
03 - Gone Without A Trace (feat. Nico Hartonen).flac43.17 MB
04 - Pasadena '78 (feat. Jules Näveri).flac37.27 MB
05 - Rock & Roll Unites (feat. Jake E).flac52.25 MB
06 - Fast Living, Slow Suicide (feat. Olli Herman).flac37.81 MB
07 - Going Down The Hole (feat. Nico Hartonen).flac38.04 MB
08 - Not My Time (feat. Ben Varon & Joonas Kosonen).flac45.77 MB
09 - Wake Up (feat. Pekka Heino).flac50.21 MB
10 - Flesh From The Bone (feat. Samy Elbanna).flac50.02 MB
Показать все файлы

Кто качает (только для создателя раздачи и модераторов): Локальные пиры отсутствуют

Комментарии


Зарегистрируйтесь чтобы добавить комментарий
Торрент клиент
byTorrent - программа для загрузки торрент-файлов.

Скачать byTorrent.exe (1,5 МБ)

Скачать byTorrent.zip (0,6 МБ)

Поддержи torrent.by
российских рублей
(300 российских рублей это 4$)

Обратная связь rss

End game ©