↑↓torrent.by
Поиск
Логин:  Регистрация
Пароль:

Неожиданные связи / Cocorico (2024) BDRip 1080p от MegaPeer | D

download Скачать торрент-файл   magnet Магнитная ссылка Размер: 6.90 GB Раздают: 0 Качают: 2 Добавлен: 2024-06-10 05:00
Пиры будут получены из сети DHT
Последний сидер был замечен вчера в 01:39
Информация Название: Неожиданные связи / (2024) Оригинальное название: Cocorico Год выхода: 2024 Жанр: Комедия Режиссер: Жюльен Эрве В ролях: Кристиан Клавье, Дидье Бурдон, Сильви Тестю, Марианн Деникур, Жюльен Пестель, Хлоя Куллу, Софи Фруассар, Йохан Дионне, Патрик Прежан, Лоик Рожан Описание: Алис и Франсуа решили пожениться и собираются познакомить своих родителей. По случаю встречи Алиса дарит родителям результаты ДНК-тестов, которые раскроют тайну их происхождения. Но сюрприз обернется фиаско, когда важная аристократическая семья Бувье-Соваж и более простая семья Мартен обнаружат, мягко говоря, неожиданные результаты! Страна: Франция, Бельгия Студия: Beside Productions, Canal+ , Ciné, M6, M6 Films, SND, W9, White and Yellow Films Продолжительность: 01:44:55 Перевод: Профессиональный (полное дублирование) | Марафон | Файл Качество: BDRip 1080p Исходник: COCORICO.2024.FRENCH.COMPLETE.BLURAY-Lynx Формат: MKV Кодек: MPEG-4 AVC Видео: 1920x804 (2.40:1), 23,976 fps, MPEG-4 AVC ~ 10,5 Мbps avg, 0.283 bit/pixel Аудио: AC3, 48 kHz, 6 ch, ~448.00 kbps avg | русский | DUB | Аудио: AC3, 48 kHz, 6 ch, ~640.00 kbps avg | французский | Субтитры: Русские (Full), Французские (Full), Английские (Full)
[+] Инфо-файлОбщее Уникальный идентификатор : 210636556960333939826973494493923995229 (0x9E77200FF11DBBC0B38D46C2B7AB6E5D) Полное имя : COCORICO.2024.1080p.BluRay.DD.5.1.x264-MegaPeer.mkv Формат : Matroska Версия формата : Version 4 Размер файла : 6,90 Гбайт Продолжительность : 1 ч. 31 мин. Общий битрейт : 10,8 Мбит/сек Частота кадров : 24,000 кадра/сек Название фильма : Неожиданные связи / Cocorico (2024) от stillet@MegaPeer Дата кодирования : 2024-06-09 21:27:57 UTC Программа кодирования : mkvmerge v15.0.0 ('Duel with the Devil') 64-bit Библиотека кодирования : libebml v1.3.5 + libmatroska v1.4.5 Обложка : Yes Attachments : cover.jpg / cover.jpg Видео Идентификатор : 1 Формат : AVC Формат/Информация : Advanced Video Codec Профиль формата : High@L4.1 Настройки формата : CABAC / 5 Ref Frames Параметр CABAC формата : Да Параметр RefFrames формата : 5 кадров Идентификатор кодека : V_MPEG4/ISO/AVC Продолжительность : 1 ч. 31 мин. Битрейт : 9 736 Кбит/сек Ширина : 1 920 пикселей Высота : 802 пикселя Соотношение сторон дисплея : 2,39:1 Режим частоты кадров : Постоянный Частота кадров : 24,000 кадра/сек Цветовое пространство : YUV Цветовая субдискретизация : 4:2:0 Битовая глубина : 8 бит Тип развёртки : Прогрессивная Бит/(Пиксели*Кадры) : 0.263 Размер потока : 6,20 Гбайт (90%) Библиотека кодирования : x264 core 164 r3156+57M stillet t_mod_New Параметры библиотеки кодирования : cabac=1 / ref=5 / deblock=1:-3:-3 / analyse=0x3:0x113 / me=umh / subme=10 / psy=1 / fade_compensate=0.00 / psy_rd=1.03:0.02 / mixed_ref=1 / me_range=32 / chroma_me=1 / trellis=2 / 8x8dct=1 / cqm=0 / deadzone=21,11 / fast_pskip=0 / chroma_qp_offset=-3 / threads=12 / lookahead_threads=3 / sliced_threads=0 / nr=0 / decimate=0 / interlaced=0 / bluray_compat=0 / constrained_intra=0 / fgo=0 / bframes=11 / b_pyramid=2 / b_adapt=2 / b_bias=0 / direct=3 / weightb=1 / open_gop=0 / weightp=2 / keyint=240 / keyint_min=24 / scenecut=40 / intra_refresh=0 / rc_lookahead=40 / rc=2pass / mbtree=0 / bitrate=9736 / ratetol=1.0 / qcomp=0.60 / qpmin=0:0:0 / qpmax=69:69:69 / qpstep=4 / cplxblur=20.0 / qblur=0.5 / vbv_maxrate=50000 / vbv_bufsize=62500 / nal_hrd=none / filler=0 / ip_ratio=1.40 / pb_ratio=1.30 / aq=1:1.10 / aq-sensitivity=10.00 / aq-factor=1.00:1.00:1.00 / aq2=0 / aq3=0 Язык : Французский По умолчанию : Да Принудительно : Нет Аудио #1 Идентификатор : 2 Формат : AC-3 Формат/Информация : Audio Coding 3 Коммерческое название : Dolby Digital Идентификатор кодека : A_AC3 Продолжительность : 1 ч. 31 мин. Вид битрейта : Постоянный Битрейт : 448 Кбит/сек Канал(-ы) : 6 каналов Расположение каналов : L R C LFE Ls Rs Частота дискретизации : 48,0 КГц Частота кадров : 31,250 кадров/сек (1536 SPF) Метод сжатия : С потерями Размер потока : 293 Мбайт (4%) Заголовок : DUB | Марафон Язык : Русский Вид сервиса : Complete Main По умолчанию : Да Принудительно : Нет AC3_metadata cmixlev : -3.0 dB surmixlev : -3 dB Аудио #2 Идентификатор : 3 Формат : AC-3 Формат/Информация : Audio Coding 3 Коммерческое название : Dolby Digital Идентификатор кодека : A_AC3 Продолжительность : 1 ч. 31 мин. Вид битрейта : Постоянный Битрейт : 640 Кбит/сек Канал(-ы) : 6 каналов Расположение каналов : L R C LFE Ls Rs Частота дискретизации : 48,0 КГц Частота кадров : 31,250 кадров/сек (1536 SPF) Метод сжатия : С потерями Размер потока : 418 Мбайт (6%) Язык : Французский Вид сервиса : Complete Main По умолчанию : Нет Принудительно : Нет AC3_metadata cmixlev : -3.0 dB surmixlev : -3 dB Текст #1 Идентификатор : 4 Формат : UTF-8 Идентификатор кодека : S_TEXT/UTF8 Идентификатор кодека/Информация : UTF-8 Plain Text Продолжительность : 1 ч. 27 мин. Битрейт : 134 бит/сек Частота кадров : 0,363 кадр/сек Число элементов : 1897 Размер потока : 85,6 КиБ (0%) Заголовок : Full | OFF Язык : Русский По умолчанию : Нет Принудительно : Нет Текст #2 Идентификатор : 5 Формат : UTF-8 Идентификатор кодека : S_TEXT/UTF8 Идентификатор кодека/Информация : UTF-8 Plain Text Продолжительность : 1 ч. 30 мин. Битрейт : 87 бит/сек Частота кадров : 0,338 кадр/сек Число элементов : 1827 Размер потока : 57,9 КиБ (0%) Заголовок : Full Язык : Французский По умолчанию : Да Принудительно : Нет Текст #3 Идентификатор : 6 Формат : UTF-8 Идентификатор кодека : S_TEXT/UTF8 Идентификатор кодека/Информация : UTF-8 Plain Text Продолжительность : 1 ч. 30 мин. Битрейт : 81 бит/сек Частота кадров : 0,338 кадр/сек Число элементов : 1827 Размер потока : 53,5 КиБ (0%) Заголовок : Full Язык : Английский По умолчанию : Нет Принудительно : Нет Меню 00:00:00.000 : Chapter 02 00:06:59.291 : Chapter 02 00:14:39.541 : Chapter 03 00:21:41.375 : Chapter 04 00:29:28.708 : Chapter 05 00:36:57.625 : Chapter 06 00:43:53.416 : Chapter 07 00:50:26.791 : Chapter 08 00:58:22.000 : Chapter 09 01:07:17.541 : Chapter 10 01:13:38.625 : Chapter 11 01:21:38.125 : Chapter 12 01:31:19.875 : Chapter 13
Релиз:

Всего файлов в раздаче: 1 
COCORICO.2024.1080p.BluRay.DD.5.1.x264-MegaPeer.mkv6.90 GB

Похожие раздачи по запросу - Неожиданные
2024-06-10 magnet Неожиданные связи / Cocorico (2024) BDRip от MegaPeer | D 1.46 GB ↑ 0 ↓ 0
2024-06-10 magnet Неожиданные связи / Cocorico (2024) BDRip 1080p от селезень | D | Марафон 1К7.26 GB ↑ 0 ↓ 6
2024-06-10 magnet Неожиданные связи / Cocorico (2024) BDRip-AVC от DoMiNo & селезень | D | Марафон 1К1.35 GB ↑ 0 ↓ 1
2024-06-10 magnet Неожиданные связи / Cocorico (2024) BDRip 720p от DoMiNo & селезень | D | Марафон 3.45 GB ↑ 1 ↓ 0
2024-05-01 magnet Неожиданные связи / Cocorico (2024) WEB-DLRip от ELEKTRI4KA | D 1.46 GB ↑ 0 ↓ 0
2024-05-01 magnet Неожиданные связи / Cocorico (2024) WEB-DL 1080p от ELEKTRI4KA | D 3.76 GB ↑ 0 ↓ 1
2024-05-01 magnet Неожиданные связи / Cocorico (2024) WEB-DL 1080p от New-Team | D 6.16 GB ↑ 0 ↓ 0

Комментарии

IMic
Отличная лёгкая комедия!


Зарегистрируйтесь чтобы добавить комментарий
Торрент клиент
byTorrent - программа для загрузки торрент-файлов.

Скачать byTorrent.exe (1,5 МБ)

Скачать byTorrent.zip (0,6 МБ)

Поддержи torrent.by
российских рублей
(300 российских рублей это 4$)

Обратная связь rss

End game ©