↑↓torrent.by
Поиск
Логин:  Регистрация
Пароль:

Звездные войны: Эпизод 1 – Скрытая угроза / Star Wars: Episode I - The Phantom Menace (1999) BDRip-AVC от New-Team | D

download Скачать торрент-файл   magnet Магнитная ссылка Размер: 2.91 GB Добавлен: 2024-06-10 05:00
Пиры будут получены из сети DHT
Последний сидер был замечен 2024-06-10 05:00
«У каждой саги есть начало» Страна: США Производство: Lucasfilm Ltd. Жанр: фантастика, фэнтези, боевик, приключения Год выпуска: 1999 Продолжительность: 02:16:10 Перевод: Профессиональный (полное дублирование) Оригинальная аудиодорожка: английский Cубтитры: русский Режиссер: Джордж Лукас / George Lucas В ролях: Фрэнк Оз, Сэмюэл Л. Джексон, Уорвик Дэвис, Натали Портман, Брайан Блессед, Ральф Браун, Джейк Ллойд, Теренс Стэмп, Эван МакГрегор, Лиам Нисон, Селия Имри, Энтони Дэниелс, Кенни Бейкер, Иэн Макдормуд, Оливер Форд Дэвис, Пернилла Огаст, Ахмед Бест, Эдриэн Данбар, Хью Куарши, Сайлас Карсон, Друв Чанчани, Рэй Парк, Маргарет Таунер, Оливер Уолпол, Кристина ДаСильва, Джером Блейк, Стивен Спейрс, Бенедикт Тейлор, Лиз Уилсон... Подробнее об актерах Роли дублировали: Владимир Летенков, Евгений Иванов, Юлия Николаева, Игорь Семенов, Вадим Яковлев... Описание: Мирная и процветающая планета Набу. Торговая федерация, не желая платить налоги, вступает в прямой конфликт с королевой Амидалой, правящей на планете, что приводит к войне. На стороне королевы и республики в ней участвуют два рыцаря-джедая: учитель и ученик, Квай-Гон-Джин и Оби-Ван Кеноби… Исходник: BDRemux 1080p Тип релиза: BDRip-AVC Контейнер: MKV Видео: 1024x434 (2,35:1), 23,976 кадра/сек, x264 core 138 r2356 ~ 2160 кбит/сек, 0.203 бит/пиксель Аудио: 48 кГц, Dolby Digital AC3 5.1, 448 кбит/сек DUB Аудио: 48 кГц, Dolby Digital AC3 5.1, 448 кбит/сек Английский Оригинальная навигация по главам: есть Субтитры: SoftSub (srt) Раздача от:
[+] MediaInfo Общее Полное имя : Звёздные войны Эпизод 1 — Скрытая угроза.1999.BDRip-AVC__by_AVP_Studio.mkv Формат : Matroska Версия формата : Version 4 Размер файла : 2,91 Гбайт Продолжительность : 2 ч. 16 мин. Общий битрейт : 3 058 Кбит/сек Частота кадров : 23,976 кадра/сек Название фильма : Zvezdnye.voyny.Yepizod.1–Skrytaya.ugroza.BDRip-AVC__by_AVP_Studio Дата кодирования : 2024-06-03 08:11:20 UTC Программа кодирования : mkvmerge v84.0 ('Sleeper') 64-bit Библиотека кодирования : libebml v1.4.5 + libmatroska v1.7.1 Видео Идентификатор : 1 Формат : AVC Формат/Информация : Advanced Video Codec Профиль формата : High@L4.1 Настройки формата : CABAC / 8 Ref Frames Параметр CABAC формата : Да Параметр RefFrames формата : 8 кадров Идентификатор кодека : V_MPEG4/ISO/AVC Продолжительность : 2 ч. 16 мин. Битрейт : 2 160 Кбит/сек Ширина : 1 024 пикселя Высота : 434 пикселя Соотношение сторон дисплея : 2,35:1 Режим частоты кадров : Постоянный Частота кадров : 23,976 (24000/1001) кадра/сек Цветовое пространство : YUV Цветовая субдискретизация : 4:2:0 Битовая глубина : 8 бит Тип развёртки : Прогрессивная Бит/(Пиксели*Кадры) : 0.203 Размер потока : 2,05 Гбайт (71%) Заголовок : Исходник BDRemux 1080p Библиотека кодирования : x264 core 138 r2356 a1d3d17 Параметры библиотеки кодирования : cabac=1 / ref=8 / deblock=1:-3:-2 / analyse=0x3:0x113 / me=umh / subme=10 / psy=1 / psy_rd=1.00:0.05 / mixed_ref=1 / me_range=32 / chroma_me=1 / trellis=2 / 8x8dct=1 / cqm=0 / deadzone=21,11 / fast_pskip=0 / chroma_qp_offset=-3 / threads=6 / lookahead_threads=1 / sliced_threads=0 / nr=0 / decimate=0 / interlaced=0 / bluray_compat=0 / constrained_intra=0 / bframes=8 / b_pyramid=2 / b_adapt=2 / b_bias=0 / direct=3 / weightb=1 / open_gop=0 / weightp=2 / keyint=240 / keyint_min=24 / scenecut=40 / intra_refresh=0 / rc_lookahead=40 / rc=2pass / mbtree=1 / bitrate=2160 / ratetol=1.0 / qcomp=0.60 / qpmin=0 / qpmax=69 / qpstep=4 / cplxblur=20.0 / qblur=0.5 / ip_ratio=1.40 / aq=1:1.00 Язык : Английский По умолчанию : Да Принудительно : Нет Аудио #1 Идентификатор : 2 Формат : AC-3 Формат/Информация : Audio Coding 3 Коммерческое название : Dolby Digital Идентификатор кодека : A_AC3 Продолжительность : 2 ч. 16 мин. Вид битрейта : Постоянный Битрейт : 448 Кбит/сек Канал(-ы) : 6 каналов Расположение каналов : L R C LFE Ls Rs Частота дискретизации : 48,0 КГц Частота кадров : 31,250 кадров/сек (1536 SPF) Метод сжатия : С потерями Размер потока : 436 Мбайт (15%) Заголовок : Профессиональный (дублированный) Язык : Русский По умолчанию : Да Принудительно : Нет Нормализация звука речи : -27 dB compr : -0.28 dB dynrng : -0.86 dB cmixlev : -3.0 dB surmixlev : -3 dB mixlevel : 285 dB roomtyp : Small dialnorm_Average : -27 dB dialnorm_Minimum : -27 dB dialnorm_Maximum : -27 dB Аудио #2 Идентификатор : 3 Формат : AC-3 Формат/Информация : Audio Coding 3 Коммерческое название : Dolby Digital Идентификатор кодека : A_AC3 Продолжительность : 2 ч. 16 мин. Вид битрейта : Постоянный Битрейт : 448 Кбит/сек Канал(-ы) : 6 каналов Расположение каналов : L R C LFE Ls Rs Частота дискретизации : 48,0 КГц Частота кадров : 31,250 кадров/сек (1536 SPF) Метод сжатия : С потерями Размер потока : 436 Мбайт (15%) Заголовок : Оригинал Язык : Английский По умолчанию : Нет Принудительно : Нет Нормализация звука речи : -27 dB compr : -0.28 dB dynrng : -0.86 dB cmixlev : -3.0 dB surmixlev : -3 dB mixlevel : 285 dB roomtyp : Small dialnorm_Average : -27 dB dialnorm_Minimum : -27 dB dialnorm_Maximum : -27 dB Текст Идентификатор : 4 Формат : UTF-8 Идентификатор кодека : S_TEXT/UTF8 Идентификатор кодека/Информация : UTF-8 Plain Text Продолжительность : 2 ч. 7 мин. Битрейт : 87 бит/сек Частота кадров : 0,189 кадр/сек Число элементов : 1449 Размер потока : 82,0 КиБ (0%) Заголовок : SRT Язык : Русский По умолчанию : Нет Принудительно : Нет Меню 00:00:00.000 : en:Opening Logos 00:00:21.104 : en:The Phantom Menace 00:01:52.737 : en:Short Negotiations 00:07:55.349 : en:Queen Amidala 00:09:55.970 : en:Landing on Naboo 00:11:18.761 : en:Jar Jar Binks 00:13:24.178 : en:Otoh Gunga 00:14:49.805 : en:Boss Nass 00:17:14.241 : en:The Planet Core 00:20:40.948 : en:Invasion of Theed 00:22:25.302 : en:Surprise Rescue 00:25:12.886 : en:Running the Blockade 00:29:32.812 : en:Tatooine 00:31:41.482 : en:Watto's Shop 00:35:51.732 : en:Fateful Meetings 00:40:48.571 : en:Dinner Conversation 00:44:16.320 : en:Preparing for the Race 00:52:04.579 : en:A Wager with Watto 00:55:03.842 : en:Meet the Podracers 00:58:27.921 : en:"Begin the Race" 01:02:27.702 : en:Lap Two 01:05:33.012 : en:Home Stretch 01:10:06.911 : en:Collecting the Prize 01:11:17.940 : en:Choosing a New Path 01:16:20.951 : en:Darth Maul Attacks 01:18:08.100 : en:The Queen's Worries 01:20:26.363 : en:Arrival on Coruscant 01:24:18.178 : en:The Jedi Council 01:26:44.782 : en:Senate Session 01:29:54.722 : en:Testing Anakin 01:31:02.415 : en:Palpatine's Nomination 01:33:08.541 : en:Anakin's Future 01:37:21.418 : en:The Queen's Gambit 01:39:06.315 : en:A Pleas to the Gungans 01:42:33.730 : en:Battle Plans 01:44:41.566 : en:"with Them Out" 01:46:19.247 : en:Retaking the Palace 01:48:07.731 : en:The Conflict Continues 01:50:24.951 : en:Duel of the Fates 01:56:47.667 : en:Gungan Retreat 01:59:13.062 : en:Qui-Gon vs. Darth Maul 02:00:31.390 : en:Capturing the Viceroy 02:01:21.315 : en:Obi-Wan vs. Darth Maul 02:02:23.377 : en:Control Ship Destroyed 02:03:56.971 : en:A Sith Vanquished 02:05:15.132 : en:Chancellor Palpatine Arrives 02:06:25.995 : en:New Knight, New Apprentice 02:07:23.177 : en:Farewell to a Jedi 02:08:28.992 : en:Naboo Celebration 02:09:53.535 : en:End Credits
[+] Скриншоты

Всего файлов в раздаче: 1 
Звёздные войны Эпизод 1 — Скрытая угроза.1999.BDRip-AVC_[New-team]_by_AVP_Studio.mkv2.91 GB

Похожие раздачи по запросу - Звездные
2024-06-10 magnet Звездные врата / Stargate (1994) BDRemux 1080p | P, P2, A | Director's Cut 40.58 GB ↑ 0 ↓ 0
2024-06-10 magnet Звездные врата / Stargate (1994) BDRip 1080p | P, P2, A | Director's Cut 1К24.41 GB ↑ 0 ↓ 0
2024-06-03 magnet Хан Соло: Звёздные Войны. Истории / Solo: A Star Wars Story (2018) BDRip-AVC от ExKinoRay | Локализованная версия | Лицензия 2.40 GB ↑ 0 ↓ 0
2024-05-19 magnet Звёздные войны: Сказания об Империи / Star Wars: Tales of the Empire [S01] (2024) WEB-DLRip 1080p | D | Локализованная версия | Flarrow Films 3.70 GB ↑ 0 ↓ 0
2024-05-13 magnet Звёздные войны: Бракованная партия / Star Wars: The Bad Batch [S03] (2024) WEB-DLRip 1080p | D | CFS | Локализованный видеоряд 18.95 GB ↑ 0 ↓ 0
2024-05-10 magnet Звёздные войны: Сказания об Империи / Star Wars: Tales of the Empire [S01] (2024) WEB-DL 1080p от NewComers | P 3.84 GB ↑ 0 ↓ 0
2024-05-06 magnet Звёздные войны: Бракованная партия / Star Wars: The Bad Batch [S03] (2024) WEB-DL 1080p от NewComers | P 1К19.98 GB ↑ 0 ↓ 0

Комментарии


Зарегистрируйтесь чтобы добавить комментарий
Торрент клиент
byTorrent - программа для загрузки торрент-файлов.

Скачать byTorrent.exe (1,5 МБ)

Скачать byTorrent.zip (0,6 МБ)

Поддержи torrent.by
российских рублей
(300 российских рублей это 4$)

Обратная связь rss

End game ©